<?xml version="1.0" standalone="no"?> <!DOCTYPE svg PUBLIC "-//W3C//DTD SVG 1.0//EN" "http://www.w3.org/TR/2001/REC-SVG-20010904/DTD/svg10.dtd" > <svg xmlns="http://www.w3.org/2000/svg" width="100%" height="100%">
<defs >
<font id="helveticaltcondensedmedium" horiz-adv-x="394" ><font-face
    font-family="Helvetica LT Condensed"
    units-per-em="1000"
    panose-1="2 0 6 6 4 0 0 2 0 4"
    ascent="990"
    descent="-250"
    alphabetic="0" />
<missing-glyph horiz-adv-x="250" />
<glyph unicode=" " glyph-name="space" horiz-adv-x="250" />
<glyph unicode="!" glyph-name="exclam" horiz-adv-x="333" d="M121 0V100H212V0H121ZM121 520V750H212V520L189 183H144L121 520Z" />
<glyph unicode="&quot;" glyph-name="quotedbl" horiz-adv-x="250" d="M155 739H207V513H155V739ZM44 739H96V513H44V739Z" />
<glyph unicode="#" glyph-name="numbersign" horiz-adv-x="500" d="M273 313L311 437H223L186 313H273ZM112 254H5L22 313H130L168 437H59L76 496H185L264 750H319L241 496H329L406 750H462L384 496H495L478 437H366L328 313H440L425 254H310L232 0H177L255 254H168L88
0H33L112 254Z" />
<glyph unicode="$" glyph-name="dollar" horiz-adv-x="500" d="M226 675Q208 674 190 668T159 649T137 615T128 561Q128 534 135 516T156 483T187 457T226 436V675ZM268 62Q331 59 355 93T379 184Q379 216 372 238T351 275T317 302T268 326V62ZM226 342Q191 358
158 375T99 417T58 472T42 549Q42 592 54 628T91 690T149 732T226 750V815H270V750Q362 746 403 693T444 550H363Q363 566 362 583T357 616T344 645T319 666Q307 671 295 673T270 675V420Q319 398 355 380T416 339T453 284T465 203Q465 105 417 46T268 -15V-116H226V-15Q168
-13 130 6T70 57T41 134T36 232H116Q116 200 117 170T129 115T161 77T226 62V342Z" />
<glyph unicode="%" glyph-name="percent" horiz-adv-x="833" d="M190 430Q213 430 226 441T247 469T256 506T258 543Q258 562 257 585T250 630T229 665T189 680Q164 680 151 666T131 630T123 586T122 543Q122 526 124 506T133 469T153 441T190 430ZM621 56Q644
56 657 67T678 95T687 132T689 169Q689 188 688 211T681 256T660 291T620 306Q595 306 582 292T562 256T554 212T553 169Q553 152 555 132T564 95T584 67T621 56ZM263 -15H209L544 750H595L263 -15ZM756 186Q756 134 746 98T716 41T671 10T612 0Q588 0 566 10T525
42T497 101T486 189Q486 224 492 255T515 310T558 348T625 362Q664 362 689 347T729 307T750 251T756 186ZM194 736Q233 736 258 721T298 680T319 622T325 557Q325 453 291 411T185 374Q154 377 130 386T89 417T64 473T55 560Q55 595 61 627T84 683T127 721T194
736Z" />
<glyph unicode="&amp;" glyph-name="ampersand" horiz-adv-x="667" d="M292 469Q326 495 350 525T375 601Q375 633 357 658T304 683Q271 683 253 659T234 604Q234 567 253 533T292 469ZM265 370Q241 353 222 336T190 298T169 254T161 199Q161 133 200 95T304 57Q342
57 373 77T428 127L265 370ZM472 204Q496 273 501 344H575Q571 290 560 238T521 137L620 -2H519L472 67Q403 -18 295 -18Q244 -18 204 -3T135 40T91 109T75 200Q75 243 86 275T118 334T167 383T229 427Q199 466 179 505T158 595Q158 626 168 654T196 703T241 737T300
750Q334 750 362 740T412 711T445 664T457 601Q457 571 446 544T416 493T375 450T328 414L472 204Z" />
<glyph unicode="&apos;" glyph-name="quotesingle" horiz-adv-x="250" d="M99 739H151V513H99V739Z" />
<glyph unicode="(" glyph-name="parenleft" horiz-adv-x="333" d="M284 750Q267 715 246 672T205 572T173 442T160 272Q160 203 167 141T189 20T229 -97T289 -215H231Q197 -160 169 -104T120 12T88 132T76 260Q76 334 86 396T115 516T164 631T231 750H284Z" />
<glyph unicode=")" glyph-name="parenright" horiz-adv-x="333" d="M49 -215Q66 -180 87 -137T128 -37T160 93T173 263Q173 332 166 394T144 515T104 632T44 750H102Q136 695 164 639T213 523T245 403T257 275Q257 201 247 139T218 19T169 -96T102 -215H49Z" />
<glyph unicode="*" glyph-name="asterisk" horiz-adv-x="500" d="M226 625V750H278V628L389 669L405 621L291 583L367 487L326 455L248 554L176 460L133 487L208 580L96 625L113 669L226 625Z" />
<glyph unicode="+" glyph-name="plus" horiz-adv-x="500" d="M215 505H285V289H457V219H285V0H215V219H44V289H215V505Z" />
<glyph unicode="," glyph-name="comma" horiz-adv-x="250" d="M80 0V100H171Q171 94 171 80Q171 66 171 49Q171 32 170 14T168 -18Q167 -49 157 -78T119 -126Q111 -133 101 -137T80 -146V-101Q85 -100 91 -97T103 -88Q120 -70 124 -47T129 0H80Z" />
<glyph unicode="-" glyph-name="hyphen" horiz-adv-x="333" d="M45 275V358H288V275H45Z" />
<glyph unicode="." glyph-name="period" horiz-adv-x="250" d="M80 0V100H171V0H80Z" />
<glyph unicode="/" glyph-name="slash" horiz-adv-x="278" d="M-13 -27L230 750H291L48 -27H-13Z" />
<glyph unicode="0" glyph-name="zero" horiz-adv-x="500" d="M132 382Q132 328 131 271T139 167T173 90T250 60Q296 60 320 90T356 167T368 271T369 382Q369 408 369 439Q369 471 367 503T359 565T339 618T304 657T250 675Q217 677 196 661T161 618T142 558T133
491T131 428T132 382ZM250 -15Q200 -15 166 4T109 55T73 127T54 210T47 294T46 369Q46 404 47 446T55 530T75 612T110 682T167 731T250 750Q302 750 338 732T396 683T431 614T448 532T454 447T455 369Q455 327 454 282T446 194T426 113T390 47T333 2T250 -15Z"
/>
<glyph unicode="1" glyph-name="one" horiz-adv-x="500" d="M234 546H74V611Q114 612 145 617T198 637T234 679T252 750H317V0H234V546Z" />
<glyph unicode="2" glyph-name="two" horiz-adv-x="500" d="M184 184Q157 160 145 135T130 75H447V0H44Q45 41 51 81T74 162Q82 182 99 201T133 237L276 375Q298 396 313 413T337 449T350 490T354 543Q354 571 349 595T331 637T297 665T243 675Q204 675 182 658T149
615T135 557T133 495H50V541Q50 583 61 621T98 691Q107 700 119 710T150 729T191 744T247 750Q295 750 331 735T391 692T428 626T440 541Q440 500 432 468T409 409T371 358T319 307L184 184Z" />
<glyph unicode="3" glyph-name="three" horiz-adv-x="500" d="M188 424Q213 425 240 426T290 437T328 474T343 552Q343 579 339 602T322 641T290 666T238 675Q203 675 182 663T149 631T135 584T131 528H52Q50 575 60 615T93 686T152 733T240 750Q282 750 316 737T375
700T413 641T427 564Q427 503 405 460T322 396V394Q387 380 417 333T447 221Q447 168 435 125T398 51T332 2T236 -15Q180 -15 142 2T80 51T47 126T38 220H120Q117 190 121 161T138 110T177 74T243 60Q305 60 334 98T364 194Q364 243 354 273T323 321T269 343T188
349V424Z" />
<glyph unicode="4" glyph-name="four" horiz-adv-x="500" d="M94 262H301V620H299L94 262ZM308 750H384V262H451V187H384V0H301V187H28V264L308 750Z" />
<glyph unicode="5" glyph-name="five" horiz-adv-x="500" d="M129 196Q126 136 151 98T240 60Q273 60 296 75T333 115T353 173T360 241Q360 273 356 304T338 361T300 401T235 417Q160 417 130 349H56L100 735H419V660H167L134 440L136 438Q161 465 188 478T255
492Q307 492 343 472T402 418T435 343T446 254Q446 204 436 156T402 70T339 9T242 -15Q142 -15 90 40T43 196H129Z" />
<glyph unicode="6" glyph-name="six" horiz-adv-x="500" d="M372 242Q372 273 367 301T348 352T311 387T251 401Q214 401 192 387T157 352T140 303T135 250Q133 197 141 161T166 102T205 70T257 60Q294 60 316 77T351 122T368 181T372 242ZM259 -15Q184 -15 141
17T76 101T49 213T43 333Q43 372 44 418T52 510T73 600T111 676T173 730T265 750Q349 750 393 701T440 571H355Q355 622 332 648T255 675Q223 675 202 659T166 618T144 560T132 495T127 434T125 384H127Q149 432 186 454T265 476Q315 476 351 457T411 407T446 334T458
247Q458 187 443 139T402 56T339 4T259 -15Z" />
<glyph unicode="7" glyph-name="seven" horiz-adv-x="500" d="M44 735H456V666Q348 520 286 350T209 0H116Q138 180 207 347T387 660H44V735Z" />
<glyph unicode="8" glyph-name="eight" horiz-adv-x="500" d="M155 562Q154 506 177 473T254 439Q281 439 299 448T327 474T342 513T347 559Q347 583 343 604T328 641T299 666T253 675Q197 675 176 644T155 562ZM132 218Q132 187 137 159T157 108T195 73T256 60Q308
60 338 101T368 219Q368 248 362 274T342 320T306 352T250 364Q217 364 195 352T158 320T138 273T132 218ZM188 406Q155 412 132 426T95 462T75 511T69 571Q69 603 79 635T111 692T170 734T259 750Q338 750 385 704T433 566Q433 537 427 511T407 464T372 427T320
406V404Q355 398 380 381T422 340T446 287T454 226Q454 178 443 134T408 57T346 5T254 -15Q151 -15 99 45T46 215Q46 260 59 294T94 351T140 387T188 404V406Z" />
<glyph unicode="9" glyph-name="nine" horiz-adv-x="500" d="M368 490Q368 520 363 552T344 612T306 657T245 675Q210 675 188 659T152 618T134 562T129 503Q129 474 133 444T151 390T187 350T246 334Q281 334 304 347T342 383T362 433T368 490ZM242 750Q317 750
360 718T425 634T452 522T458 402Q458 363 457 317T449 225T428 135T390 59T328 5T236 -15Q152 -15 108 34T61 164H146Q146 113 169 87T246 60Q278 60 299 76T335 117T357 175T369 240T374 301T376 351H374Q352 303 315 281T236 259Q186 259 150 278T90 328T55
401T43 488Q43 548 58 596T99 679T162 731T242 750Z" />
<glyph unicode=":" glyph-name="colon" horiz-adv-x="250" d="M80 447V547H171V447H80ZM80 0V100H171V0H80Z" />
<glyph unicode=";" glyph-name="semicolon" horiz-adv-x="250" d="M80 447V547H171V447H80ZM80 100H171Q171 94 171 80Q171 66 171 49Q171 32 170 14T168 -18Q167 -49 157 -78T119 -126Q111 -133 101 -137T80 -146V-101Q85 -100 91 -97T103 -88Q120 -70 124 -47T129
0H80V100Z" />
<glyph unicode="&lt;" glyph-name="less" horiz-adv-x="500" d="M459 63V-10L42 222V286L459 518V445L120 254L459 63Z" />
<glyph unicode="=" glyph-name="equal" horiz-adv-x="500" d="M457 124H44V194H457V124ZM457 314H44V384H457V314Z" />
<glyph unicode="&gt;" glyph-name="greater" horiz-adv-x="500" d="M381 254L42 445V518L459 286V222L42 -10V63L381 254Z" />
<glyph unicode="?" glyph-name="question" horiz-adv-x="500" d="M198 0V100H289V0H198ZM198 172Q198 211 200 237T211 284T235 327T277 378Q288 389 297 400T316 423Q342 456 356 484T371 556Q371 578 366 600T348 640T317 669T270 680Q231 680 207 666T169 628T151
574T147 514H60Q58 559 68 601T102 677T164 730T258 750Q304 750 341 737T406 700T447 640T462 562Q462 512 449 478T413 414T364 357T308 291Q303 283 299 275T292 257Q287 237 287 215Q287 194 287 172H198Z" />
<glyph unicode="@" glyph-name="at" horiz-adv-x="800" d="M431 536Q391 536 359 512T305 450T270 371T257 295Q257 277 262 260T277 229T301 207T335 199Q355 199 372 208T404 230T430 260T450 292Q459 310 468 331T484 375T497 420T502 463Q502 492 483 514T431
536ZM558 576H627L524 271Q520 260 516 245T511 219Q511 206 519 198T541 190Q558 190 575 197T609 217T639 243T662 271Q687 306 700 349T713 435Q713 496 688 545T622 629T527 682T416 701Q346 701 286 674T182 601T112 494T87 364Q87 296 113 236T185 131T290
60T418 34Q457 34 495 43T568 71T632 115T685 174H745Q721 130 686 95T607 36T516 -2T418 -15Q337 -15 267 15T146 98T66 221T36 371Q36 450 66 519T149 639T270 720T419 750Q484 750 545 728T656 663Q764 570 764 431Q764 380 748 335T703 247Q688 225 669 205T628
170T581 146T527 137Q501 137 475 149T440 190Q417 166 385 153T320 139Q288 139 262 151T218 183T190 231T180 290Q180 341 198 395T249 493T328 567T430 596Q465 596 496 579T544 529L558 576Z" />
<glyph unicode="A" glyph-name="A" horiz-adv-x="556" d="M279 690H277L178 291H376L279 690ZM225 750H335L546 0H454L395 216H158L103 0H11L225 750Z" />
<glyph unicode="B" glyph-name="B" horiz-adv-x="556" d="M163 429H237Q275 427 304 430T354 448T385 488T396 557Q396 592 389 615T363 651T314 670T236 675H163V429ZM294 75Q362 74 389 108T417 216Q417 271 401 299T359 340T301 353T237 354H163V75H294ZM80
0V750H294Q345 751 380 738T439 701T472 641T485 564Q487 501 463 462T373 399V397Q410 392 435 377T475 339T496 286T503 221Q504 109 446 52T278 0H80Z" />
<glyph unicode="C" glyph-name="C" horiz-adv-x="556" d="M420 525Q419 558 413 588T391 640T350 676T285 690Q249 690 224 675T183 634T158 576T145 509T140 443T139 386Q138 360 138 326Q138 292 141 256T153 184T178 120T221 75T285 57Q322 57 345 71T383 108T404
160T415 220Q417 233 417 245T420 271H503Q501 260 501 248Q501 236 499 225Q497 202 495 182T489 142T476 104T455 66Q426 25 386 4T292 -18Q234 -18 194 -1T128 46T86 116T64 200T55 292T53 384Q53 426 56 471T67 558T92 638T134 704T199 748T291 765Q344 765
384 747T452 696T491 619T503 525H420Z" />
<glyph unicode="D" glyph-name="D" horiz-adv-x="611" d="M165 75H298Q344 75 376 92T429 148T457 246T462 390Q460 454 453 506T428 596T379 654T298 675H165V75ZM82 0V750H288Q376 750 428 718T508 632T542 512T548 375Q546 306 536 239T500 119T426 33T303 0H82Z" />
<glyph unicode="E" glyph-name="E" horiz-adv-x="500" d="M74 0V750H449V675H157V427H431V352H157V75H451V0H74Z" />
<glyph unicode="F" glyph-name="F" horiz-adv-x="444" d="M74 0V750H426V675H157V429H407V354H157V0H74Z" />
<glyph unicode="G" glyph-name="G" horiz-adv-x="611" d="M532 -6H468V111H466Q449 47 403 15T294 -18Q238 -18 199 -1T133 46T91 115T67 198T57 289T54 380Q54 446 62 514T96 638T172 729T302 765Q356 765 397 749T467 701T511 627T525 532H441Q440 601 409 644T306
690Q265 691 237 677T191 639T162 583T147 516T141 445T140 377Q140 334 141 280T155 177T197 94T282 57Q340 54 373 76T424 136T445 219T449 310H282V385H532V-6Z" />
<glyph unicode="H" glyph-name="H" horiz-adv-x="611" d="M79 0V750H162V437H449V750H532V0H449V362H162V0H79Z" />
<glyph unicode="I" glyph-name="I" horiz-adv-x="278" d="M98 0V750H181V0H98Z" />
<glyph unicode="J" glyph-name="J" horiz-adv-x="444" d="M105 235V191Q105 166 107 143T117 101T142 71T192 60Q223 60 241 71T270 100T282 142T285 191V750H368V185Q368 126 355 87T319 26T263 -6T191 -15Q147 -15 109 0T48 56Q36 78 31 104T23 154T21 200T22 235H105Z" />
<glyph unicode="K" glyph-name="K" horiz-adv-x="556" d="M79 0V750H162V365H164L435 750H539L300 436L546 0H444L241 362L163 260V0H79Z" />
<glyph unicode="L" glyph-name="L" horiz-adv-x="500" d="M83 0V750H166V75H472V0H83Z" />
<glyph unicode="M" glyph-name="M" horiz-adv-x="778" d="M556 750H702V0H619V618Q619 642 620 665T619 713H617Q610 680 605 657T594 612L437 0H338L181 621Q176 641 171 661T159 713H157Q157 689 158 665T159 616V0H76V750H223L370 165Q376 141 379 116T386
54H388Q392 83 396 110T407 166L556 750Z" />
<glyph unicode="N" glyph-name="N" horiz-adv-x="611" d="M451 750H534V0H398L188 600Q179 626 172 652T160 713H158Q159 684 159 656T160 598V0H77V750H212L425 136Q432 119 437 100T451 54H453Q452 74 452 95T451 138V750Z" />
<glyph unicode="O" glyph-name="O" horiz-adv-x="611" d="M467 389Q467 452 461 506T436 602T385 666T304 690Q256 690 225 667T176 602T152 507T145 389Q145 308 151 246T174 142T222 79T306 57Q358 57 389 78T438 142T461 246T467 389ZM59 391Q59 434 62 478T74
564T100 642T144 706T212 749T308 765Q363 765 402 749T469 706T513 643T539 565T550 479T553 391Q553 313 545 240T512 109T437 17T306 -18Q224 -18 176 16T102 108T68 239T59 391Z" />
<glyph unicode="P" glyph-name="P" horiz-adv-x="556" d="M169 393H250Q293 393 327 398T384 418T420 462T433 539Q433 584 420 611T382 653T326 671T255 675H169V393ZM86 0V750H283Q305 750 328 748T375 741T420 727T458 701Q492 669 505 628T519 541Q519 510
514 480T497 424T464 376T413 340Q393 332 369 328T318 321T266 319T219 318H169V0H86Z" />
<glyph unicode="Q" glyph-name="Q" horiz-adv-x="611" d="M320 144L364 199L434 143Q440 154 446 177T458 231T465 294T468 358Q467 439 461 501T438 605T390 668T306 690Q254 690 223 669T174 605T151 501T145 358Q145 295 151 240T176 144T225 79T304 57Q329
58 350 63T394 85L320 144ZM582 18L540 -34L456 36Q444 24 427 14T390 -3T349 -14T306 -18Q224 -18 176 16T102 108T68 239T59 391Q59 434 62 478T74 564T99 642T143 706T209 749T304 765Q360 765 400 749T468 706T513 643T539 565T551 479T554 391Q554 371 552
331T544 246T527 158T496 90L582 18Z" />
<glyph unicode="R" glyph-name="R" horiz-adv-x="611" d="M169 405H300Q315 405 339 408T388 425T429 466T445 543Q444 591 427 618T386 657T334 672T286 675H169V405ZM169 0H86V750H279Q338 750 385 741T466 708T516 643T531 536Q529 470 491 426T387 373V371Q423
368 447 360T485 335T507 294T520 231Q522 189 526 148T536 64Q537 59 539 51T544 36T552 23T565 17V0H468Q461 18 456 43T448 94T444 146T442 191Q442 219 436 244T415 289T376 319T314 330H169V0Z" />
<glyph unicode="S" glyph-name="S" horiz-adv-x="556" d="M400 553Q402 582 396 607T374 650T336 679T281 690Q236 690 209 677T169 645T151 602T147 556Q147 517 164 493T218 454Q248 443 277 432T337 409Q390 389 423 369T474 326T498 273T505 207Q505 100 443
41T272 -18Q244 -18 215 -13T158 5T107 41T67 101Q61 115 58 132T54 168T52 205T51 238H134Q132 196 136 163T156 106T200 70T276 57Q339 57 379 89T419 188Q419 231 411 254T387 291T348 313T297 332Q282 338 263 345T223 359T184 374T150 390Q97 417 79 460T61
560Q61 606 76 644T119 709T185 750T270 765Q373 765 431 712T483 553H400Z" />
<glyph unicode="T" glyph-name="T" horiz-adv-x="500" d="M15 750H486V675H292V0H209V675H15V750Z" />
<glyph unicode="U" glyph-name="U" horiz-adv-x="611" d="M81 750H164V211Q164 189 167 162T184 112T227 73T306 57Q356 57 384 73T427 112T444 162T448 211V750H531V181Q531 80 470 31T306 -18Q204 -18 143 31T81 181V750Z" />
<glyph unicode="V" glyph-name="V" horiz-adv-x="556" d="M453 750H545L329 0H226L11 750H103L276 60H278L453 750Z" />
<glyph unicode="W" glyph-name="W" horiz-adv-x="833" d="M280 0H177L17 750H109L207 233Q214 195 219 154T229 60H231Q236 104 241 145T255 227L365 750H468L567 233Q574 195 579 155T589 60H591Q596 104 601 145T615 227L724 750H816L640 0H537L437 509Q429
546 425 587T415 690H413Q408 636 403 593T389 509L280 0Z" />
<glyph unicode="X" glyph-name="X" horiz-adv-x="556" d="M230 385L23 750H121L278 457L435 750H533L327 385L539 0H437L278 314L116 0H17L230 385Z" />
<glyph unicode="Y" glyph-name="Y" horiz-adv-x="556" d="M278 374L454 750H546L319 291V0H236V291L11 750H103L278 374Z" />
<glyph unicode="Z" glyph-name="Z" horiz-adv-x="500" d="M28 0V72L382 675H37V750H468V678L114 75H473V0H28Z" />
<glyph unicode="[" glyph-name="bracketleft" horiz-adv-x="333" d="M100 -209V750H275V690H178V-147H275V-209H100Z" />
<glyph unicode="\" glyph-name="backslash" horiz-adv-x="250" d="M216 -27L-27 750H34L277 -27H216Z" />
<glyph unicode="]" glyph-name="bracketright" horiz-adv-x="333" d="M58 -209V-147H155V690H58V750H233V-209H58Z" />
<glyph unicode="^" glyph-name="asciicircum" horiz-adv-x="500" d="M274 750L431 333H377L249 671L123 333H70L225 750H274Z" />
<glyph unicode="_" glyph-name="underscore" horiz-adv-x="500" d="M0 -125V-75H500V-125H0Z" />
<glyph unicode="`" glyph-name="grave" horiz-adv-x="333" d="M144 765L233 624H166L35 765H144Z" />
<glyph unicode="a" glyph-name="a" horiz-adv-x="444" d="M287 300Q258 283 226 269T162 240Q134 227 124 200T113 144Q113 102 128 77T191 52Q202 52 218 57T250 74T276 109T287 165V300ZM417 0Q412 -1 408 -1T399 -4Q374 -5 357 -4T327 6T309 30T299 75H297Q290
57 278 41T249 12T213 -8T174 -15Q132 -15 105 -4T61 29T38 80T31 148Q31 156 32 173T42 210T66 250T111 283Q128 290 154 301T207 322T254 341T278 353Q291 363 292 379T293 417Q293 465 273 484T205 504Q178 504 162 498T138 480T127 449T124 406H53Q50 493 91
532T218 571Q259 571 286 561T330 535T355 501T366 465T370 436T369 420V101Q369 90 370 78T383 59Q391 57 400 57Q409 57 417 58V0Z" />
<glyph unicode="b" glyph-name="b" horiz-adv-x="500" d="M149 264Q149 234 150 197T162 128T195 74T260 52Q321 52 343 113T365 288Q365 315 363 352T350 423T318 480T259 504Q215 504 193 478T160 415T150 336T149 264ZM147 0H75V750H154V499H156Q179 537 207
554T272 571Q325 571 359 547T412 486T439 403T447 314Q447 255 442 196T418 90T366 14T276 -15Q240 -15 207 1T149 66H147V0Z" />
<glyph unicode="c" glyph-name="c" horiz-adv-x="444" d="M235 504Q192 504 170 476T138 409T127 327T126 254Q126 227 128 192T141 126T173 74T232 52Q264 52 283 64T312 97T325 143T330 194H405Q404 154 395 117T367 50T316 3T238 -15Q174 -15 136 9T78 74T51
165T44 271Q44 322 50 375T76 471T134 543T236 571Q278 571 309 556T360 515T391 455T401 381H327Q327 404 323 426T309 465T281 493T235 504Z" />
<glyph unicode="d" glyph-name="d" horiz-adv-x="500" d="M345 287Q345 315 343 352T331 424T299 481T237 504Q212 504 192 493T158 457T136 388T128 281Q128 236 130 195T143 122T176 71T240 52Q271 52 291 69T323 111T340 165T345 218V287ZM345 750H424V0H348V73H346Q333
48 320 32T291 5T256 -10T211 -15Q167 -15 138 3T91 50T65 113T53 181T49 240T48 279Q46 340 55 393T84 486T137 548T215 571Q258 571 286 553T343 499H345V750Z" />
<glyph unicode="e" glyph-name="e" horiz-adv-x="444" d="M313 336Q312 360 311 389T301 444T275 487T222 504Q187 504 168 487T140 445T129 390T125 336H313ZM391 185Q393 144 384 108T353 44T300 1T223 -15Q184 -15 151 -1T94 48T57 138T43 279Q43 323 50 374T76
469T131 542T221 571Q288 571 323 543T374 470T391 373T395 271H125Q126 243 126 205Q126 167 134 133T162 76T225 52Q253 52 272 64T301 95T315 137T317 185H391Z" />
<glyph unicode="f" glyph-name="f" horiz-adv-x="278" d="M93 489H12V556H92V603Q92 628 94 658T112 710Q132 738 167 746T259 750V683Q235 685 219 685T192 677T177 655T172 615V556H259V489H172V0H93V489Z" />
<glyph unicode="g" glyph-name="g" horiz-adv-x="500" d="M236 504Q210 504 192 493T161 462T142 419T132 370T128 321T127 278Q127 227 132 186T148 114T179 68T228 52Q273 52 297 76T332 137T345 215T347 290Q347 331 342 369T325 438T291 486T236 504ZM347
556H426V67Q426 16 419 -26T384 -112Q358 -154 318 -171T231 -189Q164 -189 119 -157T65 -53H142Q147 -91 170 -106T229 -122Q277 -122 301 -102T334 -52T344 10T345 65H343Q318 22 290 4T223 -15Q184 -15 151 0T95 49T58 141T45 282Q45 326 52 376T78 470T131
542T221 571Q259 571 292 552T345 493H347V556Z" />
<glyph unicode="h" glyph-name="h" horiz-adv-x="500" d="M152 0H73V750H152V495H154Q181 531 213 551T291 571Q354 571 391 537T428 429V0H349V407Q349 451 332 477T266 504Q221 504 188 473Q164 451 158 427T152 372V0Z" />
<glyph unicode="i" glyph-name="i" horiz-adv-x="222" d="M72 650V750H151V650H72ZM72 0V556H151V0H72Z" />
<glyph unicode="j" glyph-name="j" horiz-adv-x="222" d="M75 650V750H154V650H75ZM13 -117Q17 -117 25 -117Q33 -117 41 -116T56 -111T66 -102Q75 -85 75 -66Q75 -47 75 -29V556H154V-22Q154 -71 148 -103T125 -154T81 -182T13 -190V-117Z" />
<glyph unicode="k" glyph-name="k" horiz-adv-x="444" d="M69 0V750H148V297H150L340 556H434L262 340L439 0H347L208 277L148 198V0H69Z" />
<glyph unicode="l" glyph-name="l" horiz-adv-x="222" d="M72 0V750H151V0H72Z" />
<glyph unicode="m" glyph-name="m" horiz-adv-x="778" d="M155 0H76V556H152V485H154Q174 520 208 545T286 571Q331 571 365 547T418 483Q447 526 480 548T567 571Q625 571 669 532Q682 520 689 503T699 468T702 433T703 402V0H624V407Q624 454 607 479T539 504Q496
502 465 473Q441 451 435 427T429 372V0H350V407Q350 451 333 477T267 504Q222 504 189 473Q165 451 160 427T155 372V0Z" />
<glyph unicode="n" glyph-name="n" horiz-adv-x="500" d="M150 495H152Q181 531 213 551T291 571Q354 571 391 537T428 429V0H349V407Q349 451 332 477T266 504Q221 504 188 473Q164 451 158 427T152 372V0H73V556H150V495Z" />
<glyph unicode="o" glyph-name="o" horiz-adv-x="500" d="M367 272Q367 398 340 451T250 504Q189 504 161 451T133 272Q133 223 138 183T157 113T192 68T250 52Q285 52 308 68T344 113T362 182T367 272ZM449 297Q449 207 435 147T395 51T333 0T250 -15Q205 -15
169 0T106 51T65 147T51 297Q51 360 63 410T99 497T161 552T250 571Q301 571 338 552T400 497T437 411T449 297Z" />
<glyph unicode="p" glyph-name="p" horiz-adv-x="500" d="M365 288Q365 315 362 352T348 423T316 480T256 504Q217 504 196 480T165 421T153 348T151 279Q151 250 152 211T163 137T194 77T257 52Q318 52 341 113T365 288ZM151 -188H72V556H148V494H150Q169 533
200 551T265 571Q318 571 353 547T409 486T438 403T447 315Q447 256 441 197T415 91T360 15T269 -15Q227 -15 201 4T153 58H151V-188Z" />
<glyph unicode="q" glyph-name="q" horiz-adv-x="500" d="M137 254Q138 213 142 177T158 113T189 69T241 52Q281 52 303 77T334 137T345 212T347 280Q347 308 346 346T336 420T305 479T244 504Q205 504 183 480T151 420T138 339T137 254ZM350 556H426V-184H347V61H345Q319
23 292 4T227 -15Q183 -15 152 2T101 54T70 142T55 270Q52 317 59 370T85 467T137 541T220 571Q258 571 291 555T348 499H350V556Z" />
<glyph unicode="r" glyph-name="r" horiz-adv-x="333" d="M157 465H159Q184 520 221 543T322 562V484Q284 491 254 483T203 455T171 405T160 337V0H81V556H157V465Z" />
<glyph unicode="s" glyph-name="s" horiz-adv-x="444" d="M303 407Q305 457 286 480T215 504Q173 504 150 484T127 420Q127 393 137 377T163 350T199 332T240 316Q270 302 298 290T349 262T386 220T400 156Q400 76 349 30T212 -15Q175 -16 136 -3T74 43Q49 76
46 104T43 162H118Q116 111 136 82T212 52Q260 52 289 73T318 146Q318 176 305 193T271 222T227 240T181 256Q149 268 124 280T81 310T54 353T45 414Q45 450 57 479T90 528T142 560T208 571Q291 571 336 532T380 407H303Z" />
<glyph unicode="t" glyph-name="t" horiz-adv-x="278" d="M164 556H257V489H165V110Q165 103 165 96T167 82T177 71T202 67H255V0H168Q150 0 135 2T109 13T92 41T86 91V489H9V556H86V707H164V556Z" />
<glyph unicode="u" glyph-name="u" horiz-adv-x="500" d="M345 73H343Q323 30 288 8T211 -15Q148 -15 113 19T77 127V556H156V124Q156 89 170 71T227 52Q256 52 280 64T322 101Q336 122 340 148T345 199V556H424V0H345V73Z" />
<glyph unicode="v" glyph-name="v" horiz-adv-x="444" d="M13 556H95L221 67H223L349 556H431L264 0H178L13 556Z" />
<glyph unicode="w" glyph-name="w" horiz-adv-x="667" d="M468 67H470L567 556H649L510 0H428L334 489H332L244 0H162L19 556H101L202 67H204L292 556H374L468 67Z" />
<glyph unicode="x" glyph-name="x" horiz-adv-x="444" d="M19 556H101L225 356L348 556H430L270 286L436 0H354L224 222L91 0H9L179 286L19 556Z" />
<glyph unicode="y" glyph-name="y" horiz-adv-x="444" d="M5 556H87L212 74H214L343 556H425L260 25Q256 13 250 -7T237 -48T223 -88T209 -117Q187 -156 157 -173T82 -190Q53 -190 25 -181V-111Q39 -117 54 -120T84 -123Q112 -123 127 -114T152 -89T168 -54T182
-13L5 556Z" />
<glyph unicode="z" glyph-name="z" horiz-adv-x="389" d="M24 0V62L282 491H35V556H364V491L106 65H366V0H24Z" />
<glyph unicode="{" glyph-name="braceleft" horiz-adv-x="274" d="M177 17Q177 -25 195 -51T266 -93V-95Q216 -97 183 -90T131 -64T105 -18T97 52V217Q97 242 94 263T65 303Q53 312 38 318T7 328V330Q31 332 46 340T74 359Q92 378 94 394T97 434V620Q97 648 103
676T139 724Q168 744 198 747T266 750V748Q212 733 195 707T177 638V451Q177 427 173 408T159 373T128 347T77 330V328Q110 321 129 309T159 279T173 239T177 190V17Z" />
<glyph unicode="|" glyph-name="bar" horiz-adv-x="250" d="M157 750V-250H93V750H157Z" />
<glyph unicode="}" glyph-name="braceright" horiz-adv-x="274" d="M97 638Q97 680 79 706T8 748V750Q58 751 91 744T143 719T169 673T177 603V438Q177 425 177 413Q177 402 180 392T189 371T209 352Q221 343 236 337T267 327V325Q243 323 228 315T200 296Q182
277 180 261T177 221V35Q177 6 170 -22T135 -69Q106 -89 76 -92T8 -95V-93Q62 -78 79 -52T97 17V204Q97 228 101 247T115 282T145 308T197 325V327Q164 334 145 346T115 376T101 416T97 465V638Z" />
<glyph unicode="~" glyph-name="asciitilde" horiz-adv-x="500" d="M161 332Q183 332 208 322T257 297Q282 284 304 273T342 262Q356 262 368 270T390 290T409 316T423 345L457 298Q448 278 437 258T411 222T379 197T341 187Q330 187 315 192T285 204T255 218T230
231Q214 239 197 247T161 256Q145 256 133 248T110 226T93 197T78 166L44 214Q53 235 64 256T90 294T121 321T161 332Z" />
<glyph unicode="&#x80;" glyph-name="Euro" horiz-adv-x="500" d="M166 285Q172 246 184 206T217 134T265 81T333 60Q356 60 373 62T406 71T434 87T462 111V22Q436 3 403 -6T334 -15Q272 -15 227 10T150 77T102 173T78 285H15L25 329H74V359Q74 371 74 382Q74
394 75 406H15L25 450H79Q86 512 103 567T152 662T230 726T339 750Q381 750 422 737T494 696L474 612Q441 644 410 659T327 675Q284 675 255 654T206 601T177 528T163 450H434L424 406H161Q160 395 160 385Q160 375 160 366Q160 357 160 348Q160 339 161 329H405L395
285H166Z" />
</font>
</defs>
</svg>
