<?xml version="1.0" encoding="UTF-8" standalone="no"?>
<!DOCTYPE svg  PUBLIC '-//W3C//DTD SVG 1.1//EN'  'http://www.w3.org/Graphics/SVG/1.1/DTD/svg11.dtd'>
<svg xmlns="http://www.w3.org/2000/svg">
<defs>
<font id="HelveticaLTStd-LightCond" horiz-adv-x="444">
<font-face underline-position="-50" font-weight="300" descent="-200" panose-1="2 11 4 6 2 2 2 3 2 4" units-per-em="1000" unicode-range="U+0020-25CA" font-stretch="condensed" bbox="-170 -250 1000 986" x-height="552" underline-thickness="50" font-family="Helvetica LT Std Cond Light" ascent="800" cap-height="750"/>
<missing-glyph horiz-adv-x="1000"/>
<glyph glyph-name=".notdef" horiz-adv-x="1000"/>
<glyph glyph-name=".null" horiz-adv-x="0"/>
<glyph glyph-name="nonmarkingreturn" horiz-adv-x="333"/>
<glyph glyph-name="space" horiz-adv-x="222" unicode=" "/>
<glyph glyph-name="exclam" horiz-adv-x="222" unicode="!" d="M146 13h-69v88h69v-88zM133 189h-40q-12 290 -12 362v199h64v-199q0 -72 -12 -362z"/>
<glyph glyph-name="quotedbl" horiz-adv-x="309" unicode='&quot;' d="M184 524v226h52v-226h-52zM73 524v226h52v-226h-52z"/>
<glyph glyph-name="numbersign" d="M172 300h70l34 131h-69zM49 0l64 249h-100l15 51h97l34 131h-99l15 51h96l65 262h48l-66 -262h70l65 262h47l-65 -262h96l-15 -51h-92l-34 -131h94l-15 -51h-91l-62 -249h-50l64 249h-70l-64 -249h-47z" unicode="#"/>
<glyph glyph-name="dollar" d="M244 -14v-82h-47v82q-86 7 -128.5 63t-42.5 143v19h60v-17q0 -146 111 -156v298q-78 34 -120 79.5t-42 121.5q0 14 2.5 30.5t12.5 41.5t26 45t47.5 36.5t73.5 20.5v67h47v-62q155 -32 155 -193h-58q0 48 -23.5 87t-73.5 50v-278q81 -34 120 -71q56 -53 56 -134 q0 -82 -47 -132t-129 -59zM244 315v-278q54 2 84.5 42t30.5 97q0 92 -115 139zM197 402v258q-99 -15 -99 -128q0 -39 25 -75.5t74 -54.5z" unicode="$"/>
<glyph glyph-name="percent" horiz-adv-x="778" unicode="%" d="M215 -15l304 756h44l-304 -756h-44zM209 413q73 0 73 135q0 26 -2 45t-8.5 42t-23 36t-41.5 13h-1q-77 0 -77 -136q0 -73 19.5 -104t60.5 -31zM207 728q131 0 131 -181q0 -178 -132 -178q-41 0 -69 14.5t-41 41.5t-18 55.5t-5 66.5q0 181 134 181zM577 42q73 0 73 135 q0 27 -2 45.5t-8.5 42t-23 36.5t-41.5 13h-1q-77 0 -77 -137q0 -73 19.5 -104t60.5 -31zM575 358q131 0 131 -181q0 -179 -132 -179q-41 0 -69 14.5t-41 42t-18 56t-5 66.5q0 181 134 181z"/>
<glyph glyph-name="ampersand" horiz-adv-x="611" unicode="&amp;" d="M215 431q-28 42 -41.5 64.5t-25 58.5t-11.5 76q0 65 37.5 101.5t100.5 36.5q60 0 99 -36t39 -98q0 -67 -31.5 -116t-89.5 -92l154 -244h2l3 6q22 66 24 155h65q-1 -47 -14 -110.5t-32 -98.5l-4 -8l83 -133h-71l-51 76l-2 -2t-1 -2q-68 -83 -180 -83q-95 0 -150 56.5 t-55 155.5q0 76 40 130.5t112 106.5zM260 470q39 27 63.5 69t24.5 88q0 83 -77 83q-36 0 -56 -20.5t-20 -57.5q0 -74 65 -162zM416 119l-174 264q-58 -43 -86 -86.5t-28 -108.5q0 -67 39 -107.5t103 -40.5q98 0 146 79z"/>
<glyph glyph-name="quotesingle" horiz-adv-x="198" unicode="&apos;" d="M73 524v226h52v-226h-52z"/>
<glyph glyph-name="parenleft" horiz-adv-x="278" unicode="(" d="M197 768h47q-127 -192 -127 -469q0 -289 127 -490h-47q-145 221 -145 489q0 270 145 470z"/>
<glyph glyph-name="parenright" horiz-adv-x="278" unicode=")" d="M81 -191h-47q127 193 127 468q0 270 -120 481q-1 1 -7 10h47q145 -218 145 -477q0 -284 -145 -482z"/>
<glyph glyph-name="asterisk" horiz-adv-x="389" unicode="*" d="M156 593l-108 37l14 42l112 -42v114h44v-114l111 42l13 -45l-109 -36l72 -105l-36 -24l-75 107l-77 -107l-35 27z"/>
<glyph glyph-name="plus" d="M197 220h-176v51h176v219h51v-219h176v-51h-176v-220h-51v220z" unicode="+"/>
<glyph glyph-name="comma" horiz-adv-x="222" unicode="," d="M77 -136v37q30 13 30 71v15v13h-30v88h69v-56q0 -47 -2 -71q-4 -45 -18.5 -66.5t-48.5 -30.5z"/>
<glyph glyph-name="hyphen" horiz-adv-x="333" unicode="-" d="M294 269h-259v58h259v-58z"/>
<glyph glyph-name="period" horiz-adv-x="222" unicode="." d="M146 0h-69v88h69v-88z"/>
<glyph glyph-name="slash" horiz-adv-x="278" unicode="/" d="M-10 -94l244 844h55l-245 -844h-54z"/>
<glyph glyph-name="zero" d="M102 353q0 -172 26.5 -242.5t89.5 -70.5q18 0 30 2.5t32 19t31.5 47.5t21 95t9.5 154q0 56 -1 92t-5 78.5t-12.5 68t-22 49t-35 34t-50.5 10.5q-62 0 -88 -74t-26 -263zM37 370q0 93 10.5 161t27 108.5t41.5 64.5t50.5 32t58.5 8q41 0 72.5 -15.5t50.5 -45t32 -61.5 t18 -74.5t7 -73.5t2 -70v-51q0 -51 -2 -90t-8.5 -84t-19.5 -77t-33 -60t-51.5 -42t-73.5 -14q-40 0 -70 13.5t-49.5 41t-32.5 60t-19 79t-8.5 89.5t-2.5 101z" unicode="0"/>
<glyph glyph-name="one" d="M60 560v47q83 2 123 30t48 107h53v-744h-65v572q-18 -3 -75 -8q-48 -4 -73 -4h-11z" unicode="1"/>
<glyph glyph-name="two" d="M99 61h297v-61h-362v52q1 29 7 53t12 40t21.5 36t25 30t33 33t36.5 36q13 14 40 41t37 37.5t28.5 32t25.5 35t16 34.5t12 43t3 48q0 51 -25 93.5t-71 45.5q-7 1 -20 1q-62 0 -86 -46t-27 -122h-62v14q0 89 46 148t133 59q79 0 128 -54t49 -145q0 -39 -12.5 -77.5t-30 -68 t-48 -65.5t-52.5 -57.5t-59 -56.5t-54 -52q-40 -40 -41 -107z" unicode="2"/>
<glyph glyph-name="three" d="M192 353h-44v54h20q149 0 149 149q0 58 -25 96t-80 38q-96 0 -107 -146h-59q-1 84 40 142t121 58q85 0 130 -53.5t45 -139.5q0 -16 -3.5 -33.5t-13 -43.5t-33.5 -50t-59 -38v-2q128 -28 128 -188q0 -57 -17 -99.5t-39 -62.5t-52 -32t-46.5 -14t-32.5 -2h-6q-16 0 -32 2 t-44.5 13.5t-49 31t-36.5 60t-16 95.5v6h61q4 -154 121 -154q64 0 94 45.5t30 112.5q0 25 -5.5 48t-19.5 48t-44.5 41t-74.5 18z" unicode="3"/>
<glyph glyph-name="four" d="M87 254h194v373h-2zM28 260l257 484h61v-490h66v-54h-66v-200h-65v200h-253v60z" unicode="4"/>
<glyph glyph-name="five" d="M27 178h64q8 -138 112 -138q37 0 63.5 17.5t40.5 47.5t20 64t6 73q0 184 -128 184q-35 0 -62 -19.5t-41 -52.5h-55l43 376h278v-61h-224l-28 -225l2 -2q34 38 101 38q50 0 86 -20.5t55.5 -55.5t28.5 -75.5t9 -88.5q0 -109 -47 -181.5t-147 -72.5q-170 0 -177 192z" unicode="5"/>
<glyph glyph-name="six" d="M226 -14q-42 0 -74.5 15.5t-52.5 44t-33 60.5t-19 74t-8 73.5t-2 70.5q0 11 1.5 44.5t2 52.5t3.5 53.5t7 57t11.5 53.5t17 51t24.5 42.5t33.5 35.5t43.5 21.5t55 8.5q70 -1 113.5 -45.5t43.5 -118.5h-60q-8 110 -103 110q-41 0 -68 -35t-38 -81q-18 -77 -22 -175h2 q55 71 132 71q48 0 83 -22t53.5 -58.5t27 -74.5t8.5 -79q0 -42 -8 -81.5t-26.5 -79.5t-56.5 -64.5t-91 -24.5zM222 416q-45 0 -73.5 -27.5t-37.5 -63t-9 -80.5q0 -34 5 -66t17.5 -65t38 -53.5t60.5 -20.5q34 0 59 19t37.5 50t18 61.5t5.5 61.5q0 47 -8.5 84.5t-37 68.5 t-75.5 31z" unicode="6"/>
<glyph glyph-name="seven" d="M51 669v61h361v-59q-43 -53 -89.5 -147t-74.5 -166q-55 -144 -71 -358h-65q8 165 70.5 351t164.5 318h-296z" unicode="7"/>
<glyph glyph-name="eight" d="M101 207q0 -68 28 -117t87 -50q128 0 128 167q0 157 -124 157q-54 0 -86.5 -40t-32.5 -117zM121 544h2q0 -56 24 -91t77 -35q52 0 75 39.5t23 95.5q0 137 -101 137q-22 0 -39.5 -8t-27.5 -20.5t-17 -28t-10 -31t-4 -28.5t-1 -22zM142 396v2q-81 31 -81 159q0 81 41.5 134 t119.5 53q84 0 123 -53t39 -140q0 -118 -80 -153v-2q103 -51 105 -192q0 -62 -16 -106t-36.5 -65t-52 -32.5t-48.5 -13t-41 -1.5h-8h-5q-72 0 -119 59.5t-47 155.5q0 67 22.5 115t83.5 80z" unicode="8"/>
<glyph glyph-name="nine" d="M221 744q41 0 73 -15t51.5 -43.5t32 -59.5t18 -72.5t7.5 -72.5t2 -70q-1 -13 -2 -57t-2 -69t-6 -69t-12.5 -71t-22 -60.5t-34 -52.5t-49.5 -32.5t-68 -13.5q-70 1 -112.5 45t-42.5 118h60q8 -109 103 -109q41 0 68 34.5t38 80.5q17 74 17 175h-2q-50 -71 -127 -71 q-48 0 -83 22t-53 58.5t-26.5 74.5t-8.5 79q0 42 7.5 81.5t26 80t56.5 65t91 24.5zM221 690q-34 0 -58.5 -19t-36 -50.5t-16.5 -61.5t-5 -62q0 -184 117 -184q118 0 118 171q0 34 -5 66t-17 65.5t-37 54t-60 20.5z" unicode="9"/>
<glyph glyph-name="colon" horiz-adv-x="222" unicode=":" d="M146 0h-69v88h69v-88zM146 433h-69v88h69v-88z"/>
<glyph glyph-name="semicolon" horiz-adv-x="222" unicode=";" d="M77 433v88h69v-88h-69zM77 -136v37q30 13 30 71v15v13h-30v88h69v-56q0 -47 -2 -71q-4 -45 -18.5 -66.5t-48.5 -30.5z"/>
<glyph glyph-name="less" d="M19 223v44l407 234v-56l-353 -195v-5l353 -201v-56z" unicode="&lt;"/>
<glyph glyph-name="equal" d="M424 182v-51h-403v51h403zM424 360v-51h-403v51h403z" unicode="="/>
<glyph glyph-name="greater" d="M426 267v-44l-407 -234v56l353 195v5l-353 201v56z" unicode="&gt;"/>
<glyph glyph-name="question" horiz-adv-x="389" unicode="?" d="M211 0h-70v88h70v-88zM203 171h-56q-1 9 -1 26q0 57 18 99.5t60 98.5q38 50 56.5 88t18.5 85q0 57 -26.5 92t-75.5 35q-69 0 -92 -41.5t-23 -117.5h-62v12q0 36 7.5 68.5t25.5 64.5t53.5 50.5t85.5 18.5q71 0 120 -45.5t49 -132.5q0 -50 -18 -95t-70 -111 q-41 -53 -55.5 -86.5t-14.5 -89.5v-19z"/>
<glyph glyph-name="at" horiz-adv-x="800" unicode="@" d="M549 541l15 49h55l-105 -314q-13 -42 -13 -57q0 -37 42 -37q31 0 68 30t60 64q20 28 36.5 77.5t16.5 91.5q0 122 -91.5 199t-214.5 77q-143 0 -242.5 -104t-99.5 -246q0 -140 102 -240.5t242 -100.5q81 0 158 39.5t126 106.5h53q-49 -90 -141.5 -142t-195.5 -52 q-166 0 -280 115.5t-114 281.5q0 162 116.5 276t278.5 114q140 0 244 -90q109 -94 109 -239q0 -49 -18 -102t-42 -87q-81 -113 -182 -113q-31 0 -54.5 14.5t-24.5 43.5q-55 -50 -134 -50q-64 0 -100 44t-36 110q0 72 29.5 142t88 119t131.5 49q38 0 70 -18t47 -51zM431 564 q-52 0 -99 -43.5t-73 -101.5t-26 -107q0 -55 28.5 -87.5t71.5 -32.5q51 0 86 25.5t47 61.5l53 158q6 18 6 36q0 38 -24 64.5t-65 26.5h-5z"/>
<glyph glyph-name="A" horiz-adv-x="500" unicode="A" d="M213 750h75l201 -750h-66l-59 231h-228l-61 -231h-63zM150 289h200l-99 379h-2z"/>
<glyph glyph-name="B" horiz-adv-x="500" unicode="B" d="M165 0h-103v750h164q104 0 150 -41q57 -50 57 -142q0 -133 -102 -170v-2q123 -33 123 -179q0 -55 -15 -95t-39.5 -63t-63.5 -36.5t-78 -17.5t-93 -4zM127 422h67q88 0 131 29t43 114q0 34 -10 58.5t-24.5 37.5t-40 20t-48.5 9t-57 2h-61v-270zM195 364h-68v-306h81 q93 0 137 34t44 125q0 39 -10.5 67t-26 43.5t-42.5 24t-52 10.5t-63 2z"/>
<glyph glyph-name="C" horiz-adv-x="556" unicode="C" d="M427 254h65v-8q0 -67 -21.5 -125t-71 -98.5t-119.5 -40.5q-45 0 -80.5 15.5t-57.5 37.5t-38 61t-24 69.5t-12 80t-4.5 76.5t-0.5 74q0 55 3.5 99t16.5 97.5t35.5 89.5t64.5 61t99 25q97 0 150 -66.5t54 -167.5h-65q-5 77 -38 126.5t-103 49.5q-35 0 -62 -14.5t-43 -41.5 t-26 -55t-14.5 -68t-5.5 -66t-1 -61v-23v-25q0 -33 0.5 -56t4 -58.5t9.5 -60.5t18 -53.5t28 -46t41.5 -29.5t57.5 -12q40 0 68.5 19.5t43 53.5t21 68t7.5 73z"/>
<glyph glyph-name="D" horiz-adv-x="556" unicode="D" d="M72 0v750h134q78 0 129.5 -13t92.5 -58q35 -42 53.5 -113t18.5 -134v-30q0 -172 -29 -249q-32 -91 -90.5 -122t-161.5 -31h-147zM137 692v-634h78q81 0 115 16q105 48 105 302v11q0 38 -1 62.5t-6 64t-14.5 66t-29 53.5t-46.5 42q-32 18 -102 18q-30 0 -43 -1h-56z"/>
<glyph glyph-name="E" d="M412 0h-345v750h340v-58h-275v-270h250v-58h-250v-306h280v-58z" unicode="E"/>
<glyph glyph-name="F" d="M134 0h-65v750h345v-58h-280v-270h250v-58h-250v-364z" unicode="F"/>
<glyph glyph-name="G" horiz-adv-x="556" unicode="G" d="M418 314h-161v58h226v-372h-52l-6 77h-2q-55 -95 -163 -95q-44 0 -78.5 15.5t-56.5 38t-38 60t-23.5 69t-12 79t-5 75.5t-0.5 71q0 49 2 84.5t8.5 84t21.5 81.5t38.5 64.5t62.5 47.5t90 16q91 0 147 -64.5t56 -158.5h-62q-22 165 -139 165q-37 0 -65.5 -14.5t-45 -42.5 t-27.5 -57t-15.5 -69.5t-5.5 -67t-1 -62.5v-22q0 -31 0.5 -52t3.5 -59t8.5 -65t17 -59t27.5 -52t41 -34t56 -14q29 0 52.5 10t39 24.5t27 40t17.5 46t10 53t5 51t2 49.5z"/>
<glyph glyph-name="H" horiz-adv-x="556" unicode="H" d="M133 0h-65v750h65v-319h290v319h65v-750h-65v373h-290v-373z"/>
<glyph glyph-name="I" horiz-adv-x="222" unicode="I" d="M144 0h-65v750h65v-750z"/>
<glyph glyph-name="J" horiz-adv-x="389" unicode="J" d="M12 219h65v-16q0 -30 0.5 -46.5t5.5 -42t14 -39.5t27.5 -24.5t44.5 -10.5q27 0 45 10t25.5 30t9.5 38t2 46v586h65v-590q0 -178 -153 -178q-78 0 -113.5 51.5t-37.5 133.5v52z"/>
<glyph glyph-name="K" horiz-adv-x="500" unicode="K" d="M132 0h-65v750h65v-375h2l271 375h75l-222 -303l233 -447h-70l-205 394l-84 -110v-284z"/>
<glyph glyph-name="L" d="M417 0h-343v750h65v-692h278v-58z" unicode="L"/>
<glyph glyph-name="M" horiz-adv-x="722" unicode="M" d="M138 685v-685h-65v750h109l178 -654h2l182 654h106v-750h-65v685h-2l-186 -685h-69l-188 685h-2z"/>
<glyph glyph-name="N" horiz-adv-x="556" unicode="N" d="M147 750l276 -644h2v644h65v-750h-79l-278 642h-2v-642h-65v750h81z"/>
<glyph glyph-name="O" horiz-adv-x="556" unicode="O" d="M282 40q35 0 62 14.5t43 42t26 55.5t14.5 68.5t5.5 66.5t1 63v24q0 35 -0.5 54.5t-3.5 59.5t-8.5 65.5t-17 58t-28 52t-42.5 33t-59 13.5q-31 0 -56 -13.5t-40.5 -32.5t-26.5 -50.5t-16.5 -57t-8.5 -63.5t-3.5 -59t-0.5 -53v-25q0 -33 0.5 -56t4 -58.5t9.5 -60.5 t18 -53.5t28 -46t41.5 -29.5t57.5 -12zM276 -18q-35 0 -64.5 9.5t-50.5 24t-38 39t-27.5 47t-18 57t-11 59t-5.5 62.5t-2.5 59t-0.5 57q0 55 3.5 99t17 97.5t36 89.5t64.5 61t99 25q46 0 81.5 -15t58.5 -36.5t39 -59t24 -68t12.5 -79.5t5 -76.5t0.5 -74.5q0 -42 -1 -73 t-6 -72.5t-14 -71.5t-25.5 -62t-39.5 -52t-58 -33t-79 -13z"/>
<glyph glyph-name="P" horiz-adv-x="500" unicode="P" d="M141 692v-295h56q49 0 81 5t61.5 20t43.5 46t14 80q0 81 -39 111.5t-122 32.5h-95zM141 0h-65v750h133q133 0 193 -42.5t60 -153.5q0 -113 -61 -163q-32 -27 -80 -39.5t-81 -12.5h-99v-339z"/>
<glyph glyph-name="Q" horiz-adv-x="556" unicode="Q" d="M445 69l82 -67l-35 -44l-83 68q-49 -44 -133 -44q-35 0 -64.5 9.5t-50.5 23.5t-38 39t-27.5 47.5t-18 56.5t-11 58.5t-5.5 63t-2.5 59t-0.5 56.5q0 55 3.5 99t17 98t36 90t64.5 61t99 25q46 0 81.5 -15t58.5 -36.5t39 -59t24 -68t12.5 -79.5t5 -76.5t0.5 -74.5 q0 -206 -54 -290zM359 66l-76 61l36 45l76 -62q39 70 39 236v28q0 35 -0.5 54.5t-3.5 59.5t-8.5 65.5t-17 58t-28 52t-42.5 33t-59 13.5q-31 0 -56 -13.5t-40.5 -32.5t-26.5 -50.5t-16.5 -57t-8.5 -63.5t-3.5 -59t-0.5 -53v-25q0 -33 0.5 -56t4 -58.5t9.5 -60.5t18 -53.5 t28 -46t41.5 -29.5t57.5 -12q46 0 77 26z"/>
<glyph glyph-name="R" horiz-adv-x="500" unicode="R" d="M128 692v-281h114q10 0 22.5 1.5t33 10t36.5 22.5t28 42t12 66q0 79 -36 109t-116 30h-94zM195 353h-67v-353h-65v750h145q112 0 171.5 -42.5t59.5 -149.5q0 -62 -27.5 -113t-82.5 -63v-2q60 -15 79.5 -58.5t20.5 -124.5q0 -5 0.5 -30.5t2 -46.5t4.5 -46t10 -42t17 -23 v-9h-71q-10 22 -16 58.5t-8 66t-3.5 70t-2.5 51.5q-3 36 -16.5 58.5t-39 32.5t-49.5 13t-62 3z"/>
<glyph glyph-name="S" horiz-adv-x="500" unicode="S" d="M211 433l58 -24q43 -18 63.5 -27.5t50.5 -29t43.5 -38.5t24 -50t10.5 -71q0 -97 -58.5 -154t-156.5 -57t-152 61t-54 161v8h64q-1 -76 33.5 -124t107.5 -48q69 0 110 41t41 110q0 21 -4.5 38.5t-9.5 30t-17.5 24.5t-20 19t-26.5 16t-27 12.5t-31.5 12.5t-31.5 12 q-57 23 -91 44.5t-58 62.5t-24 98q0 93 52.5 150t142.5 57q86 0 138.5 -53t52.5 -139v-7h-63v9q0 59 -34.5 95.5t-94.5 36.5q-62 0 -95.5 -40.5t-33.5 -104.5q0 -54 20 -82t71 -50z"/>
<glyph glyph-name="T" d="M190 692h-170v58h405v-58h-170v-692h-65v692z" unicode="T"/>
<glyph glyph-name="U" horiz-adv-x="556" unicode="U" d="M73 198v552h65v-544q0 -86 28.5 -126t108.5 -40q82 0 112.5 44t30.5 128v538h65v-522q0 -119 -46 -182.5t-160 -63.5q-204 0 -204 216z"/>
<glyph glyph-name="V" horiz-adv-x="500" unicode="V" d="M215 0l-201 750h68l168 -665h2l172 665h63l-199 -750h-73z"/>
<glyph glyph-name="W" horiz-adv-x="722" unicode="W" d="M397 750l123 -636h2l120 636h63l-148 -750h-73l-125 642h-2l-122 -642h-73l-145 750h66l114 -633h2l123 633h75z"/>
<glyph glyph-name="X" horiz-adv-x="500" unicode="X" d="M211 387l-184 363h73l149 -301l153 301h72l-186 -363l194 -387h-71l-162 326l-161 -326h-70z"/>
<glyph glyph-name="Y" horiz-adv-x="500" unicode="Y" d="M249 393l165 357h68l-200 -431v-319h-65v319l-198 431h72z"/>
<glyph glyph-name="Z" d="M411 0h-377v60l307 632h-293v58h363v-56l-309 -636h309v-58z" unicode="Z"/>
<glyph glyph-name="bracketleft" horiz-adv-x="278" unicode="[" d="M229 -58v-46h-155v872h153v-46h-95v-780h97z"/>
<glyph glyph-name="backslash" horiz-adv-x="222" unicode="\" d="M27 750l244 -844h-54l-245 844h55z"/>
<glyph glyph-name="bracketright" horiz-adv-x="278" unicode="]" d="M204 -104h-155v46h97v780h-95v46h153v-872z"/>
<glyph glyph-name="asciicircum" d="M201 750h41l135 -410h-47l-109 335h-2l-106 -335h-47z" unicode="^"/>
<glyph glyph-name="underscore" horiz-adv-x="500" unicode="_" d="M0 -75h500v-50h-500v50z"/>
<glyph glyph-name="grave" horiz-adv-x="333" unicode="`" d="M229 606h-51l-138 139h78z"/>
<glyph glyph-name="a" horiz-adv-x="389" unicode="a" d="M97 413h-56v8q0 69 38.5 107t108.5 38q80 0 114 -42q27 -35 27 -108v-339q0 -23 6 -30t27 -7h7v-42q-17 -6 -34 -6q-15 0 -30 3q-6 2 -11 5.5t-7.5 6t-4.5 8t-3 8t-2.5 11t-2.5 11.5h-1q-43 -59 -122 -59q-70 0 -97.5 41.5t-27.5 114.5q0 103 76 142q24 12 75 31t76 31 q13 6 15 22q2 9 2 34q0 30 -4 58q-13 55 -79 55q-15 0 -27 -2.5t-20.5 -6t-15 -11t-10 -12.5t-7 -16.5t-4.5 -16.5t-3 -18.5t-3 -18.5zM271 201v97q-20 -11 -115 -51q-44 -19 -58 -42t-14 -72q0 -96 77 -96q54 0 82 41t28 123z"/>
<glyph glyph-name="b" d="M122 52v-52h-58v750h58v-243h2q53 59 124 59q154 0 154 -288q0 -34 -1.5 -61t-6.5 -63.5t-16 -63.5t-28 -52t-44 -38.5t-63 -13.5q-82 0 -119 66h-2zM229 37q27 0 47.5 11.5t32.5 33.5t19.5 43.5t10.5 53t4 50t1 45.5t-0.5 45t-3.5 50t-10.5 54t-19 45t-31.5 35t-46 12 q-27 0 -47 -11t-31.5 -33t-19 -42t-10 -52t-3 -47.5t-0.5 -43.5v-23q0 -226 107 -226z" unicode="b"/>
<glyph glyph-name="c" horiz-adv-x="389" unicode="c" d="M300 183h58q1 -86 -35.5 -141.5t-117.5 -55.5q-34 0 -60.5 10t-44 25.5t-30 41t-18.5 48.5t-10 56t-4.5 56t-0.5 56q0 35 2 63t7 63.5t16.5 62t29 50t46 36t65.5 12.5q71 0 111 -52t39 -125h-57q-2 53 -26.5 89.5t-67.5 36.5h-3q-35 -1 -58 -22t-32 -59.5t-11.5 -68 t-2.5 -73.5v-23v-8q0 -42 2.5 -70.5t12 -69t34 -62.5t62.5 -22q23 0 40 10t26 22t15.5 36t8 37.5z"/>
<glyph glyph-name="d" d="M324 507v243h58v-750h-58v52h-2q-34 -66 -119 -66q-43 0 -74 20.5t-47 49.5t-25 72.5t-11 75.5t-2 74q0 288 161 288q71 0 117 -59h2zM213 515q-26 0 -46 -12.5t-31.5 -36t-19 -46.5t-10.5 -56t-3.5 -51.5t-0.5 -45.5q0 -230 114 -230q36 0 59.5 21.5t33 59.5t12.5 69.5 t3 73.5v39q0 215 -111 215z" unicode="d"/>
<glyph glyph-name="e" horiz-adv-x="389" unicode="e" d="M93 330h201q0 185 -101 185q-100 0 -100 -185zM352 335v-56h-259v-38q0 -39 3 -67.5t12.5 -63.5t32 -54t56.5 -19q29 0 48.5 12t29 36t13.5 44t6 51h56q0 -84 -37.5 -139t-116.5 -55q-37 0 -65 12.5t-45 37.5t-28 50.5t-15.5 62.5t-6 63t-1.5 62q0 35 1.5 61t6 63.5 t15 64t27.5 52t44.5 38.5t64.5 13q46 0 78.5 -20.5t49 -56t23.5 -73.5t7 -81z"/>
<glyph glyph-name="f" horiz-adv-x="222" unicode="f" d="M77 0v501h-59v51h59v60q0 79 20.5 109t87.5 30q3 0 10 -0.5t11 -0.5v-51h-12q-38 0 -48.5 -12t-10.5 -46v-26v-63h69v-51h-69v-501h-58z"/>
<glyph glyph-name="g" d="M324 502v50h58v-540q0 -97 -39 -149t-132 -52q-64 0 -107 31.5t-46 93.5h59q2 -35 29.5 -53.5t65.5 -20.5q22 0 39 5t28.5 11t20 20t12.5 23t7 29t3.5 28.5t1 31.5t0.5 29h-4q-41 -53 -116 -53q-31 0 -56 10t-41 25.5t-28 40.5t-18 47.5t-9.5 54t-4.5 54t-1 52.5 q0 35 1 59.5t5.5 63t14.5 65.5t26 53.5t43.5 40.5t63.5 14q78 0 122 -64h2zM209 515q-105 0 -105 -245q0 -27 1 -45t3.5 -49t10.5 -52.5t19.5 -43t31.5 -32.5t47 -11q30 0 51.5 17.5t32 40t16 58.5t6.5 57t1 52v44q0 33 -1.5 57t-8 54.5t-18.5 50.5t-34 33.5t-53 13.5z" unicode="g"/>
<glyph glyph-name="h" d="M121 0h-58v750h58v-247h2q36 60 118 63h12q72 0 104 -48q24 -32 24 -118v-400h-58v389q0 29 -2.5 47.5t-10.5 38.5t-26 30t-46 10q-77 0 -117 -82v-433z" unicode="h"/>
<glyph glyph-name="i" horiz-adv-x="222" unicode="i" d="M145 655h-67v95h67v-95zM140 0h-58v552h58v-552z"/>
<glyph glyph-name="j" horiz-adv-x="222" unicode="j" d="M83 750h67v-92h-67v92zM21 -189v54h5q12 0 32 4q30 11 30 68v9v606h58v-608v-7q0 -75 -30 -104q-32 -22 -95 -22z"/>
<glyph glyph-name="k" horiz-adv-x="389" unicode="k" d="M120 0h-58v750h58v-458h2l177 260h73l-150 -206l153 -346h-61l-133 287l-61 -85v-202z"/>
<glyph glyph-name="l" horiz-adv-x="222" unicode="l" d="M140 0h-58v750h58v-750z"/>
<glyph glyph-name="m" horiz-adv-x="667" unicode="m" d="M116 421v-421h-58v552h58v-49h2q38 63 117 63q41 0 67 -11.5t49 -50.5h2q43 62 130 62q70 0 98.5 -39.5t28.5 -110.5v-416h-58v423q0 40 -18 66.5t-58 26.5q-51 0 -82 -30.5t-31 -82.5v-403h-58v399q0 57 -15.5 86.5t-66.5 29.5q-36 0 -71.5 -29.5t-35.5 -64.5z"/>
<glyph glyph-name="n" d="M123 407v-407h-58v552h58v-54h2q46 68 125 68q55 0 92 -35t37 -93v-438h-58v401q0 22 -1 36.5t-5.5 30.5t-13 25.5t-24 15.5t-37.5 6q-45 0 -81 -31.5t-36 -76.5z" unicode="n"/>
<glyph glyph-name="o" d="M220 37q28 0 49 11t33.5 33.5t20.5 43.5t11 53.5t3.5 51t0.5 47.5t-1 48t-4 51t-11 53t-20.5 42.5t-34 32.5t-50.5 11q-110 0 -110 -227v-25q0 -33 1 -57.5t7.5 -59t18 -56t33.5 -37.5t53 -16zM221 -14q-35 0 -62.5 10.5t-45 26.5t-30.5 42.5t-19.5 50t-10 58.5t-4 57.5 t-0.5 57.5q0 277 175 277q44 0 77 -19t50.5 -47t28 -69t13.5 -75.5t3 -77.5q0 -57 -5.5 -100t-22 -91t-54 -74.5t-93.5 -26.5z" unicode="o"/>
<glyph glyph-name="p" d="M118 45v-235h-60v742h58v-50h2q42 64 110 64q43 0 75 -18t49 -44.5t27 -66t12.5 -72.5t2.5 -75q0 -36 -0.5 -55.5t-3.5 -56.5t-8.5 -59t-17.5 -50.5t-28.5 -44t-43 -27t-59.5 -11.5q-74 0 -113 59h-2zM116 279v-25q0 -33 1 -56.5t7.5 -56.5t17.5 -53.5t33 -35.5t53 -15 q26 0 45.5 11.5t31 34t18.5 43t9.5 53t3 48.5t0.5 44t-0.5 45t-3 50.5t-9.5 55.5t-18 45.5t-30.5 35.5t-44.5 12q-31 0 -53 -14t-33.5 -33.5t-18 -50.5t-8 -54.5t-1.5 -55.5v-28z" unicode="p"/>
<glyph glyph-name="q" d="M324 502v50h58v-741h-60v234h-2q-37 -59 -113 -59q-38 0 -66 12.5t-45 36.5t-28 49t-15.5 63t-5.5 63t-1 63t1.5 65t6.5 64.5t16 63.5t28.5 50.5t46.5 37t67 12.5q68 0 110 -64h2zM212 37q38 0 62.5 20.5t34.5 58.5t12.5 67.5t2.5 72.5v21v20q0 32 -1 54.5t-7 56t-17 55 t-32 37t-51 15.5q-26 0 -46 -11t-32 -32.5t-19.5 -42.5t-10 -52.5t-3.5 -50.5t-1 -47v-8q0 -234 108 -234z" unicode="q"/>
<glyph glyph-name="r" horiz-adv-x="278" unicode="r" d="M124 552v-64h2q21 42 50.5 60t76.5 18h4v-61h-4q-63 0 -94.5 -38t-31.5 -105v-362h-58v552h55z"/>
<glyph glyph-name="s" horiz-adv-x="389" unicode="s" d="M44 407q-1 8 -1 22q0 65 37 101t106 36q71 0 110.5 -41.5t39.5 -113.5h-57q-2 46 -26.5 75t-68.5 29q-40 0 -61 -23.5t-21 -64.5q0 -58 67 -84q46 -21 71.5 -35.5t54.5 -38.5t42 -56.5t13 -74.5q0 -73 -42 -112.5t-115 -39.5q-80 0 -120.5 42t-40.5 122h59 q8 -113 106 -113q44 0 69.5 29.5t25.5 74.5q0 40 -25 68.5t-60.5 46t-71.5 35t-62.5 46.5t-28.5 70z"/>
<glyph glyph-name="t" horiz-adv-x="222" unicode="t" d="M201 43v-48q-42 -6 -53 -6q-13 0 -22 3q-37 13 -48.5 33.5t-11.5 62.5v413h-50v51h50v162h58v-162h77v-51h-77v-407q0 -47 29 -52q9 -3 19 -3q11 0 29 4z"/>
<glyph glyph-name="u" d="M321 132v420h58v-552h-56v51h-2q-48 -65 -139 -65q-70 0 -96 42t-26 116v408h58v-418q0 -50 19.5 -74t63.5 -24q2 0 6.5 0.5t7.5 0.5q33 1 62.5 29t43.5 66z" unicode="u"/>
<glyph glyph-name="v" horiz-adv-x="389" unicode="v" d="M79 552l116 -447h2l117 447h59l-146 -552h-63l-147 552h62z"/>
<glyph glyph-name="w" horiz-adv-x="556" unicode="w" d="M310 552l87 -440h2l89 440h57l-120 -552h-61l-85 433h-2l-85 -433h-64l-117 552h58l90 -440h2l85 440h64z"/>
<glyph glyph-name="x" horiz-adv-x="389" unicode="x" d="M311 0l-118 234l-117 -234h-63l145 289l-135 263h65l105 -213l107 213h67l-138 -263l147 -289h-65z"/>
<glyph glyph-name="y" horiz-adv-x="389" unicode="y" d="M28 -188v51q9 -1 29 -1q55 0 71 35q18 41 32 101l-143 554h61l114 -447h2l120 447h59l-150 -545l-5 -20t-6 -23t-6.5 -22.5t-7.5 -24t-8.5 -22.5t-11 -22.5t-12 -19t-14 -17.5t-16.5 -13q-25 -14 -58 -14q-10 0 -27 1.5t-23 1.5z"/>
<glyph glyph-name="z" horiz-adv-x="333" unicode="z" d="M315 0h-297v55l231 446h-219v51h280v-54l-229 -447h234v-51z"/>
<glyph glyph-name="braceleft" horiz-adv-x="351" unicode="{" d="M130 450v168q0 82 28.5 116t104.5 34h14v-2q-47 -20 -63.5 -45.5t-16.5 -66.5v-177q0 -58 -17.5 -90t-72.5 -49v-2q53 -9 71.5 -38.5t18.5 -86.5v-190q0 -41 15.5 -66t64.5 -46v-2q-26 0 -39.5 1t-33.5 7t-36 18q-38 28 -38 107v189q0 19 -0.5 28.5t-5.5 23t-15 25.5 q-24 27 -61 30v2q36 10 53 24q19 15 24 33.5t5 48.5v6z"/>
<glyph glyph-name="bar" horiz-adv-x="222" unicode="|" d="M85 750h52v-1000h-52v1000z"/>
<glyph glyph-name="braceright" horiz-adv-x="351" unicode="}" d="M221 635v-189q0 -19 0.5 -28.5t5.5 -23t15 -25.5q24 -27 61 -30v-2q-36 -10 -53 -24q-19 -15 -24 -33.5t-5 -48.5v-6v-168q0 -82 -28.5 -116t-104.5 -34h-14v2q47 20 63.5 45.5t16.5 66.5v177q0 58 17.5 90t72.5 49v2q-53 9 -71.5 38.5t-18.5 86.5v190q0 41 -15.5 66 t-64.5 46v2q26 0 39.5 -1t33.5 -7t36 -18q38 -28 38 -107z"/>
<glyph glyph-name="asciitilde" d="M54 179l-33 35q52 86 114 86q32 0 94 -26q64 -26 82 -26q42 0 80 61l33 -34q-50 -81 -113 -81q-22 0 -108 32q-50 19 -68 19q-19 0 -36.5 -12.5t-24 -22t-20.5 -31.5z" unicode="~"/>
<glyph glyph-name="uni00A0" horiz-adv-x="222" unicode=" "/>
<glyph glyph-name="exclamdown" horiz-adv-x="222" unicode="¡" d="M146 464h-69v88h69v-88zM89 376h40q12 -290 12 -362v-199h-64v199q0 72 12 362z"/>
<glyph glyph-name="cent" d="M201 43q15 -6 33 -6q20 0 34.5 5.5t24.5 19t15.5 23t10 32.5t5.5 30.5t4 33.5h56q0 -54 -13 -95.5t-48 -70t-90 -28.5q-24 0 -43 4l-29 -134h-44l32 150q-87 38 -87 269q0 41 2.5 74.5t13 74.5t27.5 68.5t49 46.5t76 19q20 0 37 -4l25 116h44l-29 -133q71 -43 73 -154 h-56q-3 63 -30 93zM256 503q-10 3 -23 3q-16 0 -32 -4q-78 -20 -78 -226v-10q0 -153 40 -196z" unicode="¢"/>
<glyph glyph-name="sterling" d="M123 329h-104v41h88q-51 114 -51 202q0 70 48 117.5t118 47.5q183 0 188 -217h-60q-6 164 -120 164q-55 0 -84 -35t-29 -91q0 -19 3 -37.5t10 -41t11.5 -35.5t15.5 -39.5t14 -34.5h153v-41h-138q11 -38 11 -81q0 -126 -74 -190l2 -2q54 9 69 9q39 0 73 -14q38 -12 62 -12 q36 0 77 25l22 -47q-39 -32 -104 -32q-12 0 -32 4q-6 2 -44.5 12t-59.5 15q-15 3 -29 3q-46 0 -101 -40l-33 37q59 51 86.5 98.5t27.5 115.5q0 51 -16 99z" unicode="£"/>
<glyph glyph-name="currency" d="M384 278q0 64 -46 112t-109 48h-3h-4q-69 0 -115.5 -47t-45.5 -116q-1 -65 46.5 -112t113.5 -48q68 1 115.5 48t47.5 115zM1 104l39 38q-43 62 -43 133q0 76 43 136l-39 39l47 47l40 -38q59 44 138 44q68 0 132 -44l39 38l47 -47l-39 -39q43 -61 43 -140q0 -66 -43 -129 l39 -38l-47 -48l-39 39q-62 -45 -140 -45q-67 0 -130 45l-40 -39z" unicode="¤"/>
<glyph glyph-name="yen" d="M454 738l-199 -424v-34h137v-48h-137v-52h135v-48h-135v-132h-65v132h-138v48h138v52h-138v48h138v34l-199 424h72l158 -351l165 351h68z" unicode="¥"/>
<glyph glyph-name="brokenbar" horiz-adv-x="222" unicode="¦" d="M85 675h52v-350h-52v350zM85 -175v350h52v-350h-52z"/>
<glyph glyph-name="section" d="M260 103l-154 117q-41 31 -60.5 63t-19.5 77q0 49 24.5 81.5t71.5 62.5q-30 33 -42 59t-12 66q0 62 49 104q24 21 47 28t59 7q72 0 113 -48t44 -121h-55q-3 53 -27.5 88.5t-74.5 35.5q-43 0 -69 -22t-29 -65q0 -2 -0.5 -6.5t-0.5 -6.5q0 -60 67 -107l112 -76 q116 -79 116 -179q0 -83 -94 -141q53 -47 53 -119q0 -67 -43 -107.5t-111 -40.5q-74 0 -117 47.5t-41 122.5h54q-1 -58 26 -91.5t76 -33.5q48 0 74 29t26 68q0 63 -62 108zM293 378l-137 99q-36 -16 -58 -46t-22 -68q0 -36 14 -58t47 -45l154 -109q33 15 55.5 44.5 t22.5 63.5q0 39 -19 65.5t-57 53.5z" unicode="§"/>
<glyph glyph-name="dieresis" horiz-adv-x="333" unicode="¨" d="M214 617v102h64v-102h-64zM56 617v102h64v-102h-64z"/>
<glyph glyph-name="copyright" horiz-adv-x="800" unicode="©" d="M540 304h55q-7 -68 -58 -110t-119 -42q-95 0 -153.5 64.5t-58.5 162.5q0 99 56.5 162.5t152.5 63.5q70 0 119.5 -39.5t60.5 -108.5h-55q-8 45 -43 73.5t-81 28.5q-73 0 -113.5 -51t-40.5 -128q0 -74 42.5 -127.5t113.5 -53.5q46 0 81 28.5t41 76.5zM401 29 q139 0 237 101.5t98 245.5q0 143 -98 244t-237 101q-140 0 -238 -101t-98 -244q0 -144 98.5 -245.5t237.5 -101.5zM401 -18q-159 0 -271.5 115.5t-112.5 278.5q0 162 112.5 277.5t271.5 115.5q158 0 270 -115.5t112 -277.5q0 -163 -112 -278.5t-270 -115.5z"/>
<glyph glyph-name="ordfeminine" horiz-adv-x="266" unicode="ª" d="M68 676h-36q-2 44 23.5 68t71.5 24q48 0 70 -21t22 -69v-204q0 -15 4.5 -19t21.5 -4v-25q-9 -4 -22 -4q-8 0 -20 2q-5 2 -8 4t-5 5.5t-3 5t-2 7t-2 7.5l-1 1q-29 -35 -79 -35q-82 0 -82 94q0 61 50 85q16 7 49 18.5t49 18.5q1 1 4 3.5t3.5 3.5l1.5 3t1.5 5t0.5 7v12 q0 35 -10 51.5t-44 16.5q-13 0 -23 -3.5t-15 -6.5t-9.5 -12t-5.5 -12.5t-3 -14.5t-2 -12zM178 522v85q-22 -13 -72 -31q-28 -12 -37.5 -26t-9.5 -43q0 -58 51 -58q32 0 49 20.5t19 52.5z"/>
<glyph glyph-name="guillemotleft" horiz-adv-x="500" unicode="«" d="M411 130l-141 106v70l141 106v-60l-102 -81l102 -79v-62zM224 130l-141 106v70l141 106v-60l-101 -81l101 -79v-62z"/>
<glyph glyph-name="logicalnot" d="M21 360h403v-267h-51v216h-352v51z" unicode="¬"/>
<glyph glyph-name="uni00AD" horiz-adv-x="333" unicode="­" d="M294 269h-259v58h259v-58z"/>
<glyph glyph-name="registered" horiz-adv-x="800" unicode="®" d="M311 401h80h36q25 0 42 2.5t36 9.5t29 24t10 43q0 46 -30.5 61t-80.5 15h-122v-155zM462 359l129 -203h-62l-122 203h-96v-203h-52v440h186q69 0 104 -22q23 -14 35.5 -40t12.5 -55q0 -116 -135 -120zM401 29q139 0 237 101.5t98 245.5q0 143 -98 244t-237 101 q-140 0 -238 -101t-98 -244q0 -144 98.5 -245.5t237.5 -101.5zM401 -18q-159 0 -271.5 115.5t-112.5 278.5q0 162 112.5 277.5t271.5 115.5q158 0 270 -115.5t112 -277.5q0 -163 -112 -278.5t-270 -115.5z"/>
<glyph glyph-name="macron" horiz-adv-x="333" unicode="¯" d="M19 690h296v-45h-296v45z"/>
<glyph glyph-name="degree" horiz-adv-x="400" unicode="°" d="M310 594q0 45 -32.5 77.5t-78.5 32.5q-45 0 -77.5 -32.5t-31.5 -77.5q0 -46 32 -78t78 -32q45 0 77.5 32t32.5 78zM350 594q0 -62 -44 -106t-106 -44t-106 44t-44 106q-1 62 43.5 106t106.5 44t106 -44t44 -106z"/>
<glyph glyph-name="plusminus" d="M424 51v-51h-403v51h403zM197 270h-176v51h176v169h51v-169h176v-51h-176v-170h-51v170z" unicode="±"/>
<glyph glyph-name="twosuperior" horiz-adv-x="266" unicode="²" d="M58 343h193v-45h-235v31q2 46 17 71t53 61q7 6 10 9q13 12 35.5 32t30.5 28.5t19.5 24t15 31.5t3.5 38q0 30 -15 54.5t-43 27.5q-2 0 -6 0.5t-5 0.5q-59 0 -63 -95h-48v8q0 54 30 89t86 35q51 0 83 -32.5t32 -86.5q0 -28 -9.5 -53.5t-31 -51.5t-36.5 -41.5t-47 -43 t-42 -36.5q-26 -22 -27 -56z"/>
<glyph glyph-name="threesuperior" horiz-adv-x="266" unicode="³" d="M118 505h-29l-1 45h18q86 0 86 78t-64 78q-56 0 -62 -81h-43q-1 50 25.5 85t78.5 35q56 0 85 -32t29 -84q0 -72 -71 -99v-2q84 -16 84 -112q0 -34 -11 -59.5t-25.5 -37.5t-34 -19.5t-30.5 -8.5t-21 -1h-4q-10 0 -21 1.5t-29.5 8.5t-32 19t-24 37t-9.5 59h45 q1 -42 16 -63.5t57 -21.5q72 0 72 88q0 17 -2 28.5t-9.5 26t-26 23t-46.5 9.5z"/>
<glyph glyph-name="acute" horiz-adv-x="333" unicode="´" d="M155 606h-51l111 139h78z"/>
<glyph glyph-name="mu" d="M321 132v420h58v-552h-56v51h-2q-48 -65 -139 -65q-36 0 -64 24v-199h-58v741h58v-418q0 -50 19.5 -74t63.5 -24q2 0 6.5 0.5t7.5 0.5q33 1 62.5 29t43.5 66z" unicode="µ"/>
<glyph glyph-name="paragraph" horiz-adv-x="564" unicode="¶" d="M229 -116v482h-2q-74 0 -124 56t-50 134q0 99 55 145.5t152 48.5h183v-866h-58v799h-98v-799h-58z"/>
<glyph glyph-name="periodcentered" horiz-adv-x="222" unicode="·" d="M146 201h-69v88h69v-88z"/>
<glyph glyph-name="cedilla" horiz-adv-x="333" unicode="¸" d="M51 -188l15 30q43 -15 63 -15q26 0 46.5 11.5t20.5 35.5q0 18 -15 28t-38 10q-21 0 -41 -7l-15 13l60 82h38l-46 -57l2 -2q15 6 30 6q37 0 59.5 -19.5t22.5 -52.5q0 -42 -33.5 -62t-78.5 -20q-44 0 -90 19z"/>
<glyph glyph-name="onesuperior" horiz-adv-x="266" unicode="¹" d="M57 634v28q54 2 80 18.5t31 63.5h42v-446h-50v343q-10 -2 -27 -3t-22 -2q-30 -2 -44 -2h-10z"/>
<glyph glyph-name="ordmasculine" horiz-adv-x="266" unicode="º" d="M129 737q-71 0 -71 -128q0 -26 1 -36q1 -25 2.5 -37t6.5 -32t16.5 -31t30.5 -17q5 -1 14 -1q22 0 37 9.5t22.5 21.5t11.5 34t4.5 36.5t0.5 40.5q0 29 -1.5 47t-8 43t-23.5 37.5t-43 12.5zM134 768q112 0 112 -171q0 -27 -2 -49t-9.5 -46t-19.5 -40t-33 -26.5t-50 -10.5 q-38 0 -62 15t-34.5 44t-13.5 55t-3 65q0 164 115 164z"/>
<glyph glyph-name="guillemotright" horiz-adv-x="500" unicode="»" d="M89 412l141 -106v-70l-141 -106v62l102 79l-102 81v60zM276 352v60l141 -106v-70l-141 -106v62l101 79z"/>
<glyph glyph-name="onequarter" horiz-adv-x="666" unicode="¼" d="M19 634v28q54 2 80 18.5t31 63.5h42v-446h-50v343q-10 -2 -27 -3t-22 -2q-30 -2 -44 -2h-10zM92 0l452 744h50l-450 -744h-52zM437 152h126v224h-2zM399 159l164 287h47v-294h38v-37h-38v-115h-47v115h-164v44z"/>
<glyph glyph-name="onehalf" horiz-adv-x="666" unicode="½" d="M471 45h193v-45h-235v31q2 46 17 71t53 61q7 6 10 9q13 12 35.5 32t30.5 28.5t19.5 24t15 31.5t3.5 38q0 30 -15 54.5t-43 27.5q-2 0 -6 0.5t-5 0.5q-59 0 -63 -95h-48v8q0 54 30 89t86 35q51 0 83 -32.5t32 -86.5q0 -28 -9.5 -53.5t-31 -51.5t-36.5 -41.5t-47 -43 t-42 -36.5q-26 -22 -27 -56zM2 634v28q54 2 80 18.5t31 63.5h42v-446h-50v343q-10 -2 -27 -3t-22 -2q-30 -2 -44 -2h-10zM75 0l452 744h50l-450 -744h-52z"/>
<glyph glyph-name="threequarters" horiz-adv-x="666" unicode="¾" d="M122 504h-29l-1 45h18q86 0 86 78t-64 78q-56 0 -62 -81h-43q-1 50 25.5 85t78.5 35q56 0 85 -32t29 -84q0 -72 -71 -99v-2q84 -16 84 -112q0 -34 -11 -59.5t-25.5 -37.5t-34 -19.5t-30.5 -8.5t-21 -1h-4q-10 0 -21 1.5t-29.5 8.5t-32 19t-24 37t-9.5 59h45 q1 -42 16 -63.5t57 -21.5q72 0 72 88q0 17 -2 28.5t-9.5 26t-26 23t-46.5 9.5zM439 152h126v224h-2zM124 0l452 744h50l-450 -744h-52zM401 159l164 287h47v-294h38v-37h-38v-115h-47v115h-164v44z"/>
<glyph glyph-name="questiondown" horiz-adv-x="389" unicode="¿" d="M170 552h70v-88h-70v88zM178 377h56q1 -9 1 -26q0 -57 -18 -99.5t-60 -98.5q-38 -50 -56.5 -88t-18.5 -85q0 -57 26.5 -92t75.5 -35q69 0 92 41.5t23 117.5h62v-12q0 -36 -7.5 -68.5t-25.5 -64.5t-53.5 -50.5t-85.5 -18.5q-71 0 -120 45.5t-49 132.5q0 50 18 95t70 111 q41 53 55.5 86.5t14.5 89.5v19z"/>
<glyph glyph-name="Agrave" horiz-adv-x="500" unicode="À" d="M313 804h-51l-138 139h78zM213 750h75l201 -750h-66l-59 231h-228l-61 -231h-63zM150 289h200l-99 379h-2z"/>
<glyph glyph-name="Aacute" horiz-adv-x="500" unicode="Á" d="M239 804h-51l111 139h78zM213 750h75l201 -750h-66l-59 231h-228l-61 -231h-63zM150 289h200l-99 379h-2z"/>
<glyph glyph-name="Acircumflex" horiz-adv-x="500" unicode="Â" d="M241 906l-83 -102h-64l113 139h67l114 -139h-65zM213 750h75l201 -750h-66l-59 231h-228l-61 -231h-63zM150 289h200l-99 379h-2z"/>
<glyph glyph-name="Atilde" horiz-adv-x="500" unicode="Ã" d="M353 825q-13 -4 -28 -4q-30 0 -76 23q-52 22 -70 22q-5 0 -13 -2q-3 -1 -6 -3t-5 -3.5t-4.5 -4.5t-4 -4t-3.5 -5l-2.5 -5t-2.5 -5.5t-2.5 -5.5t-2.5 -6t-2 -6h-37q6 41 30 69t60 28q23 0 66.5 -19t54.5 -22q13 -3 22 -3q19 0 28 12t15 37h38q-8 -70 -55 -93zM213 750h75 l201 -750h-66l-59 231h-228l-61 -231h-63zM150 289h200l-99 379h-2z"/>
<glyph glyph-name="Adieresis" horiz-adv-x="500" unicode="Ä" d="M298 815v102h64v-102h-64zM140 815v102h64v-102h-64zM213 750h75l201 -750h-66l-59 231h-228l-61 -231h-63zM150 289h200l-99 379h-2z"/>
<glyph glyph-name="Aring" horiz-adv-x="500" unicode="Å" d="M250 952q-27 0 -46.5 -19.5t-19.5 -46.5t20 -46.5t46 -19.5t46 20t20 46t-19.5 46t-46.5 20zM250 786q-40 0 -69.5 30t-29.5 70t29.5 70t69.5 30t70 -30t30 -70t-30 -70t-70 -30zM213 750h75l201 -750h-66l-59 231h-228l-61 -231h-63zM150 289h200l-99 379h-2z"/>
<glyph glyph-name="AE" horiz-adv-x="722" unicode="Æ" d="M344 692h-31l-142 -405h173v405zM6 0l265 750h414v-58h-276v-273h251v-58h-251v-303h279v-58h-344v229h-193l-78 -229h-67z"/>
<glyph glyph-name="Ccedilla" horiz-adv-x="556" unicode="Ç" d="M213 -82l48 66q-32 2 -59 13.5t-46 26.5t-34 40t-25 46.5t-16.5 55.5t-10 57.5t-5.5 61t-2 57v54.5q0 55 3.5 99t16.5 97.5t35.5 89.5t64.5 61t99 25q97 0 150 -66.5t54 -167.5h-65q-5 77 -38 126.5t-103 49.5q-35 0 -62 -14.5t-43 -41.5t-26 -55t-14.5 -68t-5.5 -66 t-1 -61v-23v-25q0 -33 0.5 -56t4 -58.5t9.5 -60.5t18 -53.5t28 -46t41.5 -29.5t57.5 -12q40 0 68.5 19.5t43 53.5t21 68t7.5 73h65v-9q0 -100 -50 -177t-144 -85l-33 -40l2 -2q15 6 30 6q37 0 59.5 -19.5t22.5 -52.5q0 -42 -33.5 -62t-78.5 -20q-44 0 -90 19l15 30 q43 -15 63 -15q26 0 46.5 11.5t20.5 35.5q0 18 -15 28t-38 10q-21 0 -41 -7z"/>
<glyph glyph-name="Egrave" d="M285 804h-51l-138 139h78zM412 0h-345v750h340v-58h-275v-270h250v-58h-250v-306h280v-58z" unicode="È"/>
<glyph glyph-name="Eacute" d="M211 804h-51l111 139h78zM412 0h-345v750h340v-58h-275v-270h250v-58h-250v-306h280v-58z" unicode="É"/>
<glyph glyph-name="Ecircumflex" d="M223 906l-83 -102h-64l113 139h67l114 -139h-65zM412 0h-345v750h340v-58h-275v-270h250v-58h-250v-306h280v-58z" unicode="Ê"/>
<glyph glyph-name="Edieresis" d="M270 815v102h64v-102h-64zM112 815v102h64v-102h-64zM412 0h-345v750h340v-58h-275v-270h250v-58h-250v-306h280v-58z" unicode="Ë"/>
<glyph glyph-name="Igrave" horiz-adv-x="222" unicode="Ì" d="M174 804h-51l-138 139h78zM144 0h-65v750h65v-750z"/>
<glyph glyph-name="Iacute" horiz-adv-x="222" unicode="Í" d="M100 804h-51l111 139h78zM144 0h-65v750h65v-750z"/>
<glyph glyph-name="Icircumflex" horiz-adv-x="222" unicode="Î" d="M112 906l-83 -102h-64l113 139h67l114 -139h-65zM144 0h-65v750h65v-750z"/>
<glyph glyph-name="Idieresis" horiz-adv-x="222" unicode="Ï" d="M159 815v102h64v-102h-64zM1 815v102h64v-102h-64zM144 0h-65v750h65v-750z"/>
<glyph glyph-name="Eth" horiz-adv-x="556" unicode="Ð" d="M72 0v400h-72v54h72v296h134q78 0 129.5 -13t92.5 -58q33 -35 52.5 -109.5t19.5 -137.5v-30q0 -172 -29 -249q-35 -91 -92.5 -122t-159.5 -31h-147zM137 692v-238h136v-54h-136v-342h78q81 0 115 16q105 49 105 302q0 123 -19.5 195.5t-77.5 103.5q-32 17 -145 17h-56z "/>
<glyph glyph-name="Ntilde" horiz-adv-x="556" unicode="Ñ" d="M381 825q-13 -4 -28 -4q-30 0 -76 23q-52 22 -70 22q-5 0 -13 -2q-3 -1 -6 -3t-5 -3.5t-4.5 -4.5t-4 -4t-3.5 -5l-2.5 -5t-2.5 -5.5t-2.5 -5.5t-2.5 -6t-2 -6h-37q6 41 30 69t60 28q23 0 66.5 -19t54.5 -22q13 -3 22 -3q19 0 28 12t15 37h38q-8 -70 -55 -93zM147 750 l276 -644h2v644h65v-750h-79l-278 642h-2v-642h-65v750h81z"/>
<glyph glyph-name="Ograve" horiz-adv-x="556" unicode="Ò" d="M341 804h-51l-138 139h78zM282 40q35 0 62 14.5t43 42t26 55.5t14.5 68.5t5.5 66.5t1 63v24q0 35 -0.5 54.5t-3.5 59.5t-8.5 65.5t-17 58t-28 52t-42.5 33t-59 13.5q-31 0 -56 -13.5t-40.5 -32.5t-26.5 -50.5t-16.5 -57t-8.5 -63.5t-3.5 -59t-0.5 -53v-25q0 -33 0.5 -56 t4 -58.5t9.5 -60.5t18 -53.5t28 -46t41.5 -29.5t57.5 -12zM276 -18q-35 0 -64.5 9.5t-50.5 24t-38 39t-27.5 47t-18 57t-11 59t-5.5 62.5t-2.5 59t-0.5 57q0 55 3.5 99t17 97.5t36 89.5t64.5 61t99 25q46 0 81.5 -15t58.5 -36.5t39 -59t24 -68t12.5 -79.5t5 -76.5t0.5 -74.5 q0 -42 -1 -73t-6 -72.5t-14 -71.5t-25.5 -62t-39.5 -52t-58 -33t-79 -13z"/>
<glyph glyph-name="Oacute" horiz-adv-x="556" unicode="Ó" d="M267 804h-51l111 139h78zM282 40q35 0 62 14.5t43 42t26 55.5t14.5 68.5t5.5 66.5t1 63v24q0 35 -0.5 54.5t-3.5 59.5t-8.5 65.5t-17 58t-28 52t-42.5 33t-59 13.5q-31 0 -56 -13.5t-40.5 -32.5t-26.5 -50.5t-16.5 -57t-8.5 -63.5t-3.5 -59t-0.5 -53v-25q0 -33 0.5 -56 t4 -58.5t9.5 -60.5t18 -53.5t28 -46t41.5 -29.5t57.5 -12zM276 -18q-35 0 -64.5 9.5t-50.5 24t-38 39t-27.5 47t-18 57t-11 59t-5.5 62.5t-2.5 59t-0.5 57q0 55 3.5 99t17 97.5t36 89.5t64.5 61t99 25q46 0 81.5 -15t58.5 -36.5t39 -59t24 -68t12.5 -79.5t5 -76.5t0.5 -74.5 q0 -42 -1 -73t-6 -72.5t-14 -71.5t-25.5 -62t-39.5 -52t-58 -33t-79 -13z"/>
<glyph glyph-name="Ocircumflex" horiz-adv-x="556" unicode="Ô" d="M279 906l-83 -102h-64l113 139h67l114 -139h-65zM282 40q35 0 62 14.5t43 42t26 55.5t14.5 68.5t5.5 66.5t1 63v24q0 35 -0.5 54.5t-3.5 59.5t-8.5 65.5t-17 58t-28 52t-42.5 33t-59 13.5q-31 0 -56 -13.5t-40.5 -32.5t-26.5 -50.5t-16.5 -57t-8.5 -63.5t-3.5 -59 t-0.5 -53v-25q0 -33 0.5 -56t4 -58.5t9.5 -60.5t18 -53.5t28 -46t41.5 -29.5t57.5 -12zM276 -18q-35 0 -64.5 9.5t-50.5 24t-38 39t-27.5 47t-18 57t-11 59t-5.5 62.5t-2.5 59t-0.5 57q0 55 3.5 99t17 97.5t36 89.5t64.5 61t99 25q46 0 81.5 -15t58.5 -36.5t39 -59t24 -68 t12.5 -79.5t5 -76.5t0.5 -74.5q0 -42 -1 -73t-6 -72.5t-14 -71.5t-25.5 -62t-39.5 -52t-58 -33t-79 -13z"/>
<glyph glyph-name="Otilde" horiz-adv-x="556" unicode="Õ" d="M381 825q-13 -4 -28 -4q-30 0 -76 23q-52 22 -70 22q-5 0 -13 -2q-3 -1 -6 -3t-5 -3.5t-4.5 -4.5t-4 -4t-3.5 -5l-2.5 -5t-2.5 -5.5t-2.5 -5.5t-2.5 -6t-2 -6h-37q6 41 30 69t60 28q23 0 66.5 -19t54.5 -22q13 -3 22 -3q19 0 28 12t15 37h38q-8 -70 -55 -93zM282 40 q35 0 62 14.5t43 42t26 55.5t14.5 68.5t5.5 66.5t1 63v24q0 35 -0.5 54.5t-3.5 59.5t-8.5 65.5t-17 58t-28 52t-42.5 33t-59 13.5q-31 0 -56 -13.5t-40.5 -32.5t-26.5 -50.5t-16.5 -57t-8.5 -63.5t-3.5 -59t-0.5 -53v-25q0 -33 0.5 -56t4 -58.5t9.5 -60.5t18 -53.5t28 -46 t41.5 -29.5t57.5 -12zM276 -18q-35 0 -64.5 9.5t-50.5 24t-38 39t-27.5 47t-18 57t-11 59t-5.5 62.5t-2.5 59t-0.5 57q0 55 3.5 99t17 97.5t36 89.5t64.5 61t99 25q46 0 81.5 -15t58.5 -36.5t39 -59t24 -68t12.5 -79.5t5 -76.5t0.5 -74.5q0 -42 -1 -73t-6 -72.5t-14 -71.5 t-25.5 -62t-39.5 -52t-58 -33t-79 -13z"/>
<glyph glyph-name="Odieresis" horiz-adv-x="556" unicode="Ö" d="M326 815v102h64v-102h-64zM168 815v102h64v-102h-64zM282 40q35 0 62 14.5t43 42t26 55.5t14.5 68.5t5.5 66.5t1 63v24q0 35 -0.5 54.5t-3.5 59.5t-8.5 65.5t-17 58t-28 52t-42.5 33t-59 13.5q-31 0 -56 -13.5t-40.5 -32.5t-26.5 -50.5t-16.5 -57t-8.5 -63.5t-3.5 -59 t-0.5 -53v-25q0 -33 0.5 -56t4 -58.5t9.5 -60.5t18 -53.5t28 -46t41.5 -29.5t57.5 -12zM276 -18q-35 0 -64.5 9.5t-50.5 24t-38 39t-27.5 47t-18 57t-11 59t-5.5 62.5t-2.5 59t-0.5 57q0 55 3.5 99t17 97.5t36 89.5t64.5 61t99 25q46 0 81.5 -15t58.5 -36.5t39 -59t24 -68 t12.5 -79.5t5 -76.5t0.5 -74.5q0 -42 -1 -73t-6 -72.5t-14 -71.5t-25.5 -62t-39.5 -52t-58 -33t-79 -13z"/>
<glyph glyph-name="multiply" d="M222 204l-164 -164l-37 35l165 165l-165 165l37 36l164 -165l165 165l37 -35l-166 -166l166 -166l-37 -36z" unicode="×"/>
<glyph glyph-name="Oslash" horiz-adv-x="556" unicode="Ø" d="M120 59l-52 -88l-42 27l66 112q-34 86 -34 286q0 55 3.5 99t17 97.5t36 89.5t64.5 61t99 25q106 0 159 -76l47 78l45 -20l-65 -109q35 -83 35 -282q0 -42 -1 -73t-6 -72.5t-14 -71.5t-25.5 -62t-39.5 -52t-58 -33t-79 -13q-104 0 -156 77zM137 186l261 441 q-38 83 -123 83q-27 0 -49.5 -9t-38 -27.5t-27 -38.5t-18 -49.5t-11 -52t-6 -55.5t-2 -50.5t-0.5 -45.5v-20q0 -114 14 -176zM419 564l-261 -441q38 -83 124 -83q35 0 62 14.5t43 42t26 56t14.5 68.5t5.5 66.5t1 63.5v24q0 123 -15 189z"/>
<glyph glyph-name="Ugrave" horiz-adv-x="556" unicode="Ù" d="M341 804h-51l-138 139h78zM73 198v552h65v-544q0 -86 28.5 -126t108.5 -40q82 0 112.5 44t30.5 128v538h65v-522q0 -119 -46 -182.5t-160 -63.5q-204 0 -204 216z"/>
<glyph glyph-name="Uacute" horiz-adv-x="556" unicode="Ú" d="M267 804h-51l111 139h78zM73 198v552h65v-544q0 -86 28.5 -126t108.5 -40q82 0 112.5 44t30.5 128v538h65v-522q0 -119 -46 -182.5t-160 -63.5q-204 0 -204 216z"/>
<glyph glyph-name="Ucircumflex" horiz-adv-x="556" unicode="Û" d="M279 906l-83 -102h-64l113 139h67l114 -139h-65zM73 198v552h65v-544q0 -86 28.5 -126t108.5 -40q82 0 112.5 44t30.5 128v538h65v-522q0 -119 -46 -182.5t-160 -63.5q-204 0 -204 216z"/>
<glyph glyph-name="Udieresis" horiz-adv-x="556" unicode="Ü" d="M326 815v102h64v-102h-64zM168 815v102h64v-102h-64zM73 198v552h65v-544q0 -86 28.5 -126t108.5 -40q82 0 112.5 44t30.5 128v538h65v-522q0 -119 -46 -182.5t-160 -63.5q-204 0 -204 216z"/>
<glyph glyph-name="Yacute" horiz-adv-x="500" unicode="Ý" d="M239 804h-51l111 139h78zM249 393l165 357h68l-200 -431v-319h-65v319l-198 431h72z"/>
<glyph glyph-name="Thorn" horiz-adv-x="500" unicode="Þ" d="M141 567v-295h95q78 0 119.5 38t41.5 110t-41.5 109.5t-119.5 37.5h-95zM76 0v750h65v-125h116q32 0 64.5 -9.5t65.5 -31t54 -64t21 -100.5q0 -105 -64.5 -155.5t-161.5 -50.5h-95v-214h-65z"/>
<glyph glyph-name="germandbls" d="M124 0h-58v539q0 49 6 86t22 71.5t49 53t82 18.5q75 0 112 -52t37 -131q0 -112 -75 -153q29 -7 48 -27t29 -50.5t14 -64t4 -77.5q0 -227 -125 -227h-7q-25 1 -65 19v62q27 -30 57 -30q26 0 43 13t25 39t11 55t3 72q0 102 -25.5 146t-90.5 44h-12v51h3q62 0 84.5 29 t22.5 96q0 63 -20 99t-77 36q-23 0 -40.5 -6t-28 -20t-16.5 -27t-8.5 -36t-3 -36.5t-0.5 -39.5v-552z" unicode="ß"/>
<glyph glyph-name="agrave" horiz-adv-x="389" unicode="à" d="M257 606h-51l-138 139h78zM97 413h-56v8q0 69 38.5 107t108.5 38q80 0 114 -42q27 -35 27 -108v-339q0 -23 6 -30t27 -7h7v-42q-17 -6 -34 -6q-15 0 -30 3q-6 2 -11 5.5t-7.5 6t-4.5 8t-3 8t-2.5 11t-2.5 11.5h-1q-43 -59 -122 -59q-70 0 -97.5 41.5t-27.5 114.5 q0 103 76 142q24 12 75 31t76 31q13 6 15 22q2 9 2 34q0 30 -4 58q-13 55 -79 55q-15 0 -27 -2.5t-20.5 -6t-15 -11t-10 -12.5t-7 -16.5t-4.5 -16.5t-3 -18.5t-3 -18.5zM271 201v97q-20 -11 -115 -51q-44 -19 -58 -42t-14 -72q0 -96 77 -96q54 0 82 41t28 123z"/>
<glyph glyph-name="aacute" horiz-adv-x="389" unicode="á" d="M183 606h-51l111 139h78zM97 413h-56v8q0 69 38.5 107t108.5 38q80 0 114 -42q27 -35 27 -108v-339q0 -23 6 -30t27 -7h7v-42q-17 -6 -34 -6q-15 0 -30 3q-6 2 -11 5.5t-7.5 6t-4.5 8t-3 8t-2.5 11t-2.5 11.5h-1q-43 -59 -122 -59q-70 0 -97.5 41.5t-27.5 114.5 q0 103 76 142q24 12 75 31t76 31q13 6 15 22q2 9 2 34q0 30 -4 58q-13 55 -79 55q-15 0 -27 -2.5t-20.5 -6t-15 -11t-10 -12.5t-7 -16.5t-4.5 -16.5t-3 -18.5t-3 -18.5zM271 201v97q-20 -11 -115 -51q-44 -19 -58 -42t-14 -72q0 -96 77 -96q54 0 82 41t28 123z"/>
<glyph glyph-name="acircumflex" horiz-adv-x="389" unicode="â" d="M195 708l-83 -102h-64l113 139h67l114 -139h-65zM97 413h-56v8q0 69 38.5 107t108.5 38q80 0 114 -42q27 -35 27 -108v-339q0 -23 6 -30t27 -7h7v-42q-17 -6 -34 -6q-15 0 -30 3q-6 2 -11 5.5t-7.5 6t-4.5 8t-3 8t-2.5 11t-2.5 11.5h-1q-43 -59 -122 -59 q-70 0 -97.5 41.5t-27.5 114.5q0 103 76 142q24 12 75 31t76 31q13 6 15 22q2 9 2 34q0 30 -4 58q-13 55 -79 55q-15 0 -27 -2.5t-20.5 -6t-15 -11t-10 -12.5t-7 -16.5t-4.5 -16.5t-3 -18.5t-3 -18.5zM271 201v97q-20 -11 -115 -51q-44 -19 -58 -42t-14 -72q0 -96 77 -96 q54 0 82 41t28 123z"/>
<glyph glyph-name="atilde" horiz-adv-x="389" unicode="ã" d="M297 627q-13 -4 -28 -4q-30 0 -76 23q-52 22 -70 22q-5 0 -13 -2q-3 -1 -6 -3t-5 -3.5t-4.5 -4.5t-4 -4t-3.5 -5l-2.5 -5t-2.5 -5.5t-2.5 -5.5t-2.5 -6t-2 -6h-37q6 41 30 69t60 28q23 0 66.5 -19t54.5 -22q13 -3 22 -3q19 0 28 12t15 37h38q-8 -70 -55 -93zM97 413h-56 v8q0 69 38.5 107t108.5 38q80 0 114 -42q27 -35 27 -108v-339q0 -23 6 -30t27 -7h7v-42q-17 -6 -34 -6q-15 0 -30 3q-6 2 -11 5.5t-7.5 6t-4.5 8t-3 8t-2.5 11t-2.5 11.5h-1q-43 -59 -122 -59q-70 0 -97.5 41.5t-27.5 114.5q0 103 76 142q24 12 75 31t76 31q13 6 15 22 q2 9 2 34q0 30 -4 58q-13 55 -79 55q-15 0 -27 -2.5t-20.5 -6t-15 -11t-10 -12.5t-7 -16.5t-4.5 -16.5t-3 -18.5t-3 -18.5zM271 201v97q-20 -11 -115 -51q-44 -19 -58 -42t-14 -72q0 -96 77 -96q54 0 82 41t28 123z"/>
<glyph glyph-name="adieresis" horiz-adv-x="389" unicode="ä" d="M242 617v102h64v-102h-64zM84 617v102h64v-102h-64zM97 413h-56v8q0 69 38.5 107t108.5 38q80 0 114 -42q27 -35 27 -108v-339q0 -23 6 -30t27 -7h7v-42q-17 -6 -34 -6q-15 0 -30 3q-6 2 -11 5.5t-7.5 6t-4.5 8t-3 8t-2.5 11t-2.5 11.5h-1q-43 -59 -122 -59 q-70 0 -97.5 41.5t-27.5 114.5q0 103 76 142q24 12 75 31t76 31q13 6 15 22q2 9 2 34q0 30 -4 58q-13 55 -79 55q-15 0 -27 -2.5t-20.5 -6t-15 -11t-10 -12.5t-7 -16.5t-4.5 -16.5t-3 -18.5t-3 -18.5zM271 201v97q-20 -11 -115 -51q-44 -19 -58 -42t-14 -72q0 -96 77 -96 q54 0 82 41t28 123z"/>
<glyph glyph-name="aring" horiz-adv-x="389" unicode="å" d="M194 762q-27 0 -46.5 -19.5t-19.5 -46.5t20 -46.5t46 -19.5t46 20t20 46t-19.5 46t-46.5 20zM194 596q-40 0 -69.5 30t-29.5 70t29.5 70t69.5 30t70 -30t30 -70t-30 -70t-70 -30zM97 413h-56v8q0 69 38.5 107t108.5 38q80 0 114 -42q27 -35 27 -108v-339q0 -23 6 -30 t27 -7h7v-42q-17 -6 -34 -6q-15 0 -30 3q-6 2 -11 5.5t-7.5 6t-4.5 8t-3 8t-2.5 11t-2.5 11.5h-1q-43 -59 -122 -59q-70 0 -97.5 41.5t-27.5 114.5q0 103 76 142q24 12 75 31t76 31q13 6 15 22q2 9 2 34q0 30 -4 58q-13 55 -79 55q-15 0 -27 -2.5t-20.5 -6t-15 -11 t-10 -12.5t-7 -16.5t-4.5 -16.5t-3 -18.5t-3 -18.5zM271 201v97q-20 -11 -115 -51q-44 -19 -58 -42t-14 -72q0 -96 77 -96q54 0 82 41t28 123z"/>
<glyph glyph-name="ae" horiz-adv-x="611" unicode="æ" d="M263 155v141q-20 -16 -66 -32.5t-57 -22.5q-58 -21 -58 -114q4 -92 75 -92q99 0 106 120zM583 281h-261q0 -6 0.5 -33t1 -40t3 -39t6 -41t11.5 -34.5t18.5 -30t27 -18.5t37.5 -8q29 0 49 12t29.5 34.5t13.5 44t6 51.5h56q0 -86 -37 -139.5t-118 -53.5q-49 0 -75 18.5 t-56 63.5q-52 -82 -145 -82q-72 0 -99 41t-27 118q0 46 19 84t57 56q29 13 109 41q42 16 50 27.5t8 56.5q0 54 -17.5 79.5t-67.5 25.5q-44 0 -65 -28.5t-20 -74.5h-58q5 76 39.5 115t110.5 39q84 0 121 -56q25 30 50.5 43t63.5 13q51 0 85 -22.5t49 -64t20 -79.5t5 -89v-30z M325 332h200q0 36 -3 61.5t-12 56.5t-32 48t-58 17q-22 0 -39 -8.5t-26.5 -25.5t-16 -32.5t-9 -40.5t-3.5 -39t-1 -37z"/>
<glyph glyph-name="ccedilla" horiz-adv-x="389" unicode="ç" d="M133 -82l51 70q-41 4 -70 25t-43.5 47.5t-22.5 69.5t-9.5 73.5t-1.5 75.5q0 35 2 63t7 63.5t16.5 62t29 50t46 36t65.5 12.5q71 0 111 -52t39 -125h-57q-2 53 -26.5 89.5t-67.5 36.5h-3q-35 -1 -58 -22t-32 -59.5t-11.5 -68t-2.5 -73.5v-23v-8q0 -42 2.5 -70.5t12 -69 t34 -62.5t62.5 -22q23 0 40 10t26 22t15.5 36t8 37.5l4.5 40.5h58q1 -80 -31.5 -134.5t-104.5 -60.5l-37 -45l2 -2q15 6 30 6q37 0 59.5 -19.5t22.5 -52.5q0 -42 -33.5 -62t-78.5 -20q-44 0 -90 19l15 30q43 -15 63 -15q26 0 46.5 11.5t20.5 35.5q0 18 -15 28t-38 10 q-21 0 -41 -7z"/>
<glyph glyph-name="egrave" horiz-adv-x="389" unicode="è" d="M257 606h-51l-138 139h78zM93 330h201q0 185 -101 185q-100 0 -100 -185zM352 335v-56h-259v-38q0 -39 3 -67.5t12.5 -63.5t32 -54t56.5 -19q29 0 48.5 12t29 36t13.5 44t6 51h56q0 -84 -37.5 -139t-116.5 -55q-37 0 -65 12.5t-45 37.5t-28 50.5t-15.5 62.5t-6 63 t-1.5 62q0 35 1.5 61t6 63.5t15 64t27.5 52t44.5 38.5t64.5 13q46 0 78.5 -20.5t49 -56t23.5 -73.5t7 -81z"/>
<glyph glyph-name="eacute" horiz-adv-x="389" unicode="é" d="M183 606h-51l111 139h78zM93 330h201q0 185 -101 185q-100 0 -100 -185zM352 335v-56h-259v-38q0 -39 3 -67.5t12.5 -63.5t32 -54t56.5 -19q29 0 48.5 12t29 36t13.5 44t6 51h56q0 -84 -37.5 -139t-116.5 -55q-37 0 -65 12.5t-45 37.5t-28 50.5t-15.5 62.5t-6 63t-1.5 62 q0 35 1.5 61t6 63.5t15 64t27.5 52t44.5 38.5t64.5 13q46 0 78.5 -20.5t49 -56t23.5 -73.5t7 -81z"/>
<glyph glyph-name="ecircumflex" horiz-adv-x="389" unicode="ê" d="M195 708l-83 -102h-64l113 139h67l114 -139h-65zM93 330h201q0 185 -101 185q-100 0 -100 -185zM352 335v-56h-259v-38q0 -39 3 -67.5t12.5 -63.5t32 -54t56.5 -19q29 0 48.5 12t29 36t13.5 44t6 51h56q0 -84 -37.5 -139t-116.5 -55q-37 0 -65 12.5t-45 37.5t-28 50.5 t-15.5 62.5t-6 63t-1.5 62q0 35 1.5 61t6 63.5t15 64t27.5 52t44.5 38.5t64.5 13q46 0 78.5 -20.5t49 -56t23.5 -73.5t7 -81z"/>
<glyph glyph-name="edieresis" horiz-adv-x="389" unicode="ë" d="M242 617v102h64v-102h-64zM84 617v102h64v-102h-64zM93 330h201q0 185 -101 185q-100 0 -100 -185zM352 335v-56h-259v-38q0 -39 3 -67.5t12.5 -63.5t32 -54t56.5 -19q29 0 48.5 12t29 36t13.5 44t6 51h56q0 -84 -37.5 -139t-116.5 -55q-37 0 -65 12.5t-45 37.5t-28 50.5 t-15.5 62.5t-6 63t-1.5 62q0 35 1.5 61t6 63.5t15 64t27.5 52t44.5 38.5t64.5 13q46 0 78.5 -20.5t49 -56t23.5 -73.5t7 -81z"/>
<glyph glyph-name="igrave" horiz-adv-x="200" unicode="ì" d="M163 606h-51l-138 139h78zM129 0h-58v552h58v-552z"/>
<glyph glyph-name="iacute" horiz-adv-x="200" unicode="í" d="M89 606h-51l111 139h78zM129 0h-58v552h58v-552z"/>
<glyph glyph-name="icircumflex" horiz-adv-x="200" unicode="î" d="M90 708l-83 -102h-64l113 139h67l114 -139h-65zM129 0h-58v552h58v-552z"/>
<glyph glyph-name="idieresis" horiz-adv-x="200" unicode="ï" d="M148 617v102h64v-102h-64zM-10 617v102h64v-102h-64zM129 0h-58v552h58v-552z"/>
<glyph glyph-name="eth" d="M106 288q0 -36 0.5 -57t3.5 -55t10.5 -54.5t19.5 -42.5t32.5 -32t47.5 -10q28 0 49 11t33.5 33.5t20.5 43.5t11 53.5t3.5 51t0.5 47.5t-1 48t-4 51t-11 53t-20.5 42.5t-34 32.5t-50.5 11q-111 0 -111 -227zM88 662l75 52q-17 20 -69 63l36 31q25 -20 75 -66l73 51l24 -28 l-74 -51q89 -96 128.5 -198.5t39.5 -235.5v-11q0 -283 -174 -283q-35 0 -63 10.5t-46 26.5t-31 42.5t-19.5 49.5t-10 58.5t-4 58t-0.5 57.5q0 277 174 277q33 0 58 -14l2 2q-31 62 -94 132l-75 -52z" unicode="ð"/>
<glyph glyph-name="ntilde" d="M325 627q-13 -4 -28 -4q-30 0 -76 23q-52 22 -70 22q-5 0 -13 -2q-3 -1 -6 -3t-5 -3.5t-4.5 -4.5t-4 -4t-3.5 -5l-2.5 -5t-2.5 -5.5t-2.5 -5.5t-2.5 -6t-2 -6h-37q6 41 30 69t60 28q23 0 66.5 -19t54.5 -22q13 -3 22 -3q19 0 28 12t15 37h38q-8 -70 -55 -93zM123 407 v-407h-58v552h58v-54h2q46 68 125 68q55 0 92 -35t37 -93v-438h-58v401q0 22 -1 36.5t-5.5 30.5t-13 25.5t-24 15.5t-37.5 6q-45 0 -81 -31.5t-36 -76.5z" unicode="ñ"/>
<glyph glyph-name="ograve" d="M285 606h-51l-138 139h78zM220 37q28 0 49 11t33.5 33.5t20.5 43.5t11 53.5t3.5 51t0.5 47.5t-1 48t-4 51t-11 53t-20.5 42.5t-34 32.5t-50.5 11q-110 0 -110 -227v-25q0 -33 1 -57.5t7.5 -59t18 -56t33.5 -37.5t53 -16zM221 -14q-35 0 -62.5 10.5t-45 26.5t-30.5 42.5 t-19.5 50t-10 58.5t-4 57.5t-0.5 57.5q0 277 175 277q44 0 77 -19t50.5 -47t28 -69t13.5 -75.5t3 -77.5q0 -57 -5.5 -100t-22 -91t-54 -74.5t-93.5 -26.5z" unicode="ò"/>
<glyph glyph-name="oacute" d="M211 606h-51l111 139h78zM220 37q28 0 49 11t33.5 33.5t20.5 43.5t11 53.5t3.5 51t0.5 47.5t-1 48t-4 51t-11 53t-20.5 42.5t-34 32.5t-50.5 11q-110 0 -110 -227v-25q0 -33 1 -57.5t7.5 -59t18 -56t33.5 -37.5t53 -16zM221 -14q-35 0 -62.5 10.5t-45 26.5t-30.5 42.5 t-19.5 50t-10 58.5t-4 57.5t-0.5 57.5q0 277 175 277q44 0 77 -19t50.5 -47t28 -69t13.5 -75.5t3 -77.5q0 -57 -5.5 -100t-22 -91t-54 -74.5t-93.5 -26.5z" unicode="ó"/>
<glyph glyph-name="ocircumflex" d="M223 708l-83 -102h-64l113 139h67l114 -139h-65zM220 37q28 0 49 11t33.5 33.5t20.5 43.5t11 53.5t3.5 51t0.5 47.5t-1 48t-4 51t-11 53t-20.5 42.5t-34 32.5t-50.5 11q-110 0 -110 -227v-25q0 -33 1 -57.5t7.5 -59t18 -56t33.5 -37.5t53 -16zM221 -14q-35 0 -62.5 10.5 t-45 26.5t-30.5 42.5t-19.5 50t-10 58.5t-4 57.5t-0.5 57.5q0 277 175 277q44 0 77 -19t50.5 -47t28 -69t13.5 -75.5t3 -77.5q0 -57 -5.5 -100t-22 -91t-54 -74.5t-93.5 -26.5z" unicode="ô"/>
<glyph glyph-name="otilde" d="M325 627q-13 -4 -28 -4q-30 0 -76 23q-52 22 -70 22q-5 0 -13 -2q-3 -1 -6 -3t-5 -3.5t-4.5 -4.5t-4 -4t-3.5 -5l-2.5 -5t-2.5 -5.5t-2.5 -5.5t-2.5 -6t-2 -6h-37q6 41 30 69t60 28q23 0 66.5 -19t54.5 -22q13 -3 22 -3q19 0 28 12t15 37h38q-8 -70 -55 -93zM220 37 q28 0 49 11t33.5 33.5t20.5 43.5t11 53.5t3.5 51t0.5 47.5t-1 48t-4 51t-11 53t-20.5 42.5t-34 32.5t-50.5 11q-110 0 -110 -227v-25q0 -33 1 -57.5t7.5 -59t18 -56t33.5 -37.5t53 -16zM221 -14q-35 0 -62.5 10.5t-45 26.5t-30.5 42.5t-19.5 50t-10 58.5t-4 57.5t-0.5 57.5 q0 277 175 277q44 0 77 -19t50.5 -47t28 -69t13.5 -75.5t3 -77.5q0 -57 -5.5 -100t-22 -91t-54 -74.5t-93.5 -26.5z" unicode="õ"/>
<glyph glyph-name="odieresis" d="M270 617v102h64v-102h-64zM112 617v102h64v-102h-64zM220 37q28 0 49 11t33.5 33.5t20.5 43.5t11 53.5t3.5 51t0.5 47.5t-1 48t-4 51t-11 53t-20.5 42.5t-34 32.5t-50.5 11q-110 0 -110 -227v-25q0 -33 1 -57.5t7.5 -59t18 -56t33.5 -37.5t53 -16zM221 -14 q-35 0 -62.5 10.5t-45 26.5t-30.5 42.5t-19.5 50t-10 58.5t-4 57.5t-0.5 57.5q0 277 175 277q44 0 77 -19t50.5 -47t28 -69t13.5 -75.5t3 -77.5q0 -57 -5.5 -100t-22 -91t-54 -74.5t-93.5 -26.5z" unicode="ö"/>
<glyph glyph-name="divide" d="M191 0v102h64v-102h-64zM191 389v102h64v-102h-64zM21 271h403v-51h-403v51z" unicode="÷"/>
<glyph glyph-name="oslash" d="M92 50l-61 -92l-34 24l74 112q-22 61 -22 195q0 277 175 277q77 0 121 -57l45 69l39 -21l-61 -91q28 -67 28 -188q0 -57 -5.5 -100t-22 -91t-54 -74.5t-93.5 -26.5q-89 0 -129 64zM310 457q-29 58 -93 58q-110 0 -110 -227v-22q0 -63 7 -107zM328 405l-200 -301 q27 -67 92 -67q28 0 49 11t33.5 33.5t20.5 43.5t11 53.5t3.5 51t0.5 47.5q0 84 -10 128z" unicode="ø"/>
<glyph glyph-name="ugrave" d="M285 606h-51l-138 139h78zM321 132v420h58v-552h-56v51h-2q-48 -65 -139 -65q-70 0 -96 42t-26 116v408h58v-418q0 -50 19.5 -74t63.5 -24q2 0 6.5 0.5t7.5 0.5q33 1 62.5 29t43.5 66z" unicode="ù"/>
<glyph glyph-name="uacute" d="M211 606h-51l111 139h78zM321 132v420h58v-552h-56v51h-2q-48 -65 -139 -65q-70 0 -96 42t-26 116v408h58v-418q0 -50 19.5 -74t63.5 -24q2 0 6.5 0.5t7.5 0.5q33 1 62.5 29t43.5 66z" unicode="ú"/>
<glyph glyph-name="ucircumflex" d="M223 698l-83 -102h-64l113 139h67l114 -139h-65zM321 132v420h58v-552h-56v51h-2q-48 -65 -139 -65q-70 0 -96 42t-26 116v408h58v-418q0 -50 19.5 -74t63.5 -24q2 0 6.5 0.5t7.5 0.5q33 1 62.5 29t43.5 66z" unicode="û"/>
<glyph glyph-name="udieresis" d="M270 617v102h64v-102h-64zM112 617v102h64v-102h-64zM321 132v420h58v-552h-56v51h-2q-48 -65 -139 -65q-70 0 -96 42t-26 116v408h58v-418q0 -50 19.5 -74t63.5 -24q2 0 6.5 0.5t7.5 0.5q33 1 62.5 29t43.5 66z" unicode="ü"/>
<glyph glyph-name="yacute" horiz-adv-x="389" unicode="ý" d="M183 606h-51l111 139h78zM28 -188v51q9 -1 29 -1q55 0 71 35q18 41 32 101l-143 554h61l114 -447h2l120 447h59l-150 -545l-5 -20t-6 -23t-6.5 -22.5t-7.5 -24t-8.5 -22.5t-11 -22.5t-12 -19t-14 -17.5t-16.5 -13q-25 -14 -58 -14q-10 0 -27 1.5t-23 1.5z"/>
<glyph glyph-name="thorn" d="M58 -190v940h58v-248h2q42 64 110 64q43 0 75 -18t49 -44.5t27 -66t12.5 -72.5t2.5 -75q0 -38 -1.5 -65t-6 -66t-15.5 -66.5t-28 -53.5t-45 -39.5t-65 -13.5q-73 0 -115 59h-2v-235h-58zM226 515q-26 0 -46 -11.5t-31.5 -34.5t-18.5 -44.5t-10 -54t-3.5 -50t-0.5 -44.5 t0.5 -44.5t3.5 -50t10 -54t18.5 -44.5t31.5 -34.5t46 -11.5t46 11.5t31.5 34.5t18.5 44.5t10 54t3.5 50t0.5 44.5t-0.5 44.5t-3.5 50t-10 54t-18.5 44.5t-31.5 34.5t-46 11.5z" unicode="þ"/>
<glyph glyph-name="OE" horiz-adv-x="778" unicode="Œ" d="M399 0v81h-2q-26 -57 -58 -78t-95 -21q-188 0 -188 396q0 42 0.5 69t4.5 72t11.5 75t22.5 66t35.5 57.5t53 36t73.5 14.5q99 0 140 -103h2v85h335v-58h-270v-276h247v-58h-247v-300h274v-58h-339zM267 40q132 0 132 296v35v35q0 43 -1.5 75t-10 78.5t-22.5 76.5t-42.5 52 t-67.5 22q-28 0 -50 -13t-35.5 -31.5t-23.5 -49.5t-14.5 -55t-7 -60.5t-3 -53.5t-0.5 -47v-60q0 -57 4 -100t17.5 -93.5t45 -78.5t79.5 -28z"/>
<glyph glyph-name="oe" horiz-adv-x="667" unicode="œ" d="M370 331h197q0 39 -2.5 65t-11.5 56.5t-30.5 46t-54.5 16.5h-2q-21 0 -37.5 -8.5t-26 -25.5t-16 -32.5t-10 -41t-4.5 -39t-2 -37.5zM200 37q25 0 44.5 10t31 29.5t19 39.5t10.5 49t4 48.5t1 47.5v21v17q0 32 -1 54t-6.5 55.5t-16 54.5t-31.5 36.5t-50 15.5q-36 0 -60 -21 t-34 -59t-13 -69t-3 -73v-39q0 -217 105 -217zM625 335v-55h-257v-37q0 -40 3 -69t12.5 -64t32 -54t56.5 -19q89 0 96 141h56q-4 -192 -153 -192q-94 0 -133 87q-40 -87 -139 -87q-38 0 -67 12.5t-46 38t-27.5 50.5t-15 64.5t-5.5 64.5t-1 65q0 35 2 63.5t7.5 63.5t18 61.5 t30.5 49.5t47 35t66 12q94 0 131 -87q21 48 51.5 67.5t82.5 19.5q152 0 152 -231z"/>
<glyph glyph-name="Scaron" horiz-adv-x="500" unicode="Š" d="M251 832l82 101h65l-114 -139h-67l-113 139h64zM211 433l58 -24q43 -18 63.5 -27.5t50.5 -29t43.5 -38.5t24 -50t10.5 -71q0 -97 -58.5 -154t-156.5 -57t-152 61t-54 161v8h64q-1 -76 33.5 -124t107.5 -48q69 0 110 41t41 110q0 21 -4.5 38.5t-9.5 30t-17.5 24.5t-20 19 t-26.5 16t-27 12.5t-31.5 12.5t-31.5 12q-57 23 -91 44.5t-58 62.5t-24 98q0 93 52.5 150t142.5 57q86 0 138.5 -53t52.5 -139v-7h-63v9q0 59 -34.5 95.5t-94.5 36.5q-62 0 -95.5 -40.5t-33.5 -104.5q0 -54 20 -82t71 -50z"/>
<glyph glyph-name="scaron" horiz-adv-x="389" unicode="š" d="M185 634l82 101h65l-114 -139h-67l-113 139h64zM44 407q-1 8 -1 22q0 65 37 101t106 36q71 0 110.5 -41.5t39.5 -113.5h-57q-2 46 -26.5 75t-68.5 29q-40 0 -61 -23.5t-21 -64.5q0 -58 67 -84q46 -21 71.5 -35.5t54.5 -38.5t42 -56.5t13 -74.5q0 -73 -42 -112.5 t-115 -39.5q-80 0 -120.5 42t-40.5 122h59q8 -113 106 -113q44 0 69.5 29.5t25.5 74.5q0 40 -25 68.5t-60.5 46t-71.5 35t-62.5 46.5t-28.5 70z"/>
<glyph glyph-name="Ydieresis" horiz-adv-x="500" unicode="Ÿ" d="M298 815v102h64v-102h-64zM140 815v102h64v-102h-64zM249 393l165 357h68l-200 -431v-319h-65v319l-198 431h72z"/>
<glyph glyph-name="circumflex" horiz-adv-x="333" unicode="ˆ" d="M167 708l-83 -102h-64l113 139h67l114 -139h-65z"/>
<glyph glyph-name="tilde" horiz-adv-x="333" unicode="˜" d="M269 627q-13 -4 -28 -4q-30 0 -76 23q-52 22 -70 22q-5 0 -13 -2q-3 -1 -6 -3t-5 -3.5t-4.5 -4.5t-4 -4t-3.5 -5l-2.5 -5t-2.5 -5.5t-2.5 -5.5t-2.5 -6t-2 -6h-37q6 41 30 69t60 28q23 0 66.5 -19t54.5 -22q13 -3 22 -3q19 0 28 12t15 37h38q-8 -70 -55 -93z"/>
<glyph glyph-name="uni03BC" d="M321 132v420h58v-552h-56v51h-2q-48 -65 -139 -65q-36 0 -64 24v-199h-58v741h58v-418q0 -50 19.5 -74t63.5 -24q2 0 6.5 0.5t7.5 0.5q33 1 62.5 29t43.5 66z" unicode="μ"/>
<glyph glyph-name="pi" horiz-adv-x="462" unicode="π" d="M436 489h-65v-346q0 -93 12 -143h-55q-14 32 -14 139v350h-147q-3 -118 -20.5 -267.5t-40.5 -221.5h-56q23 80 40 224t20 265q-61 0 -88 -11l-10 40q34 25 115 25h314z"/>
<glyph glyph-name="endash" horiz-adv-x="500" unicode="–" d="M500 273h-500v51h500v-51z"/>
<glyph glyph-name="emdash" horiz-adv-x="1000" unicode="—" d="M1000 273h-1000v51h1000v-51z"/>
<glyph glyph-name="quoteleft" horiz-adv-x="160" unicode="‘" d="M111 750v-37q-30 -13 -30 -71v-15v-13h30v-88h-69v56q0 47 2 71q4 45 18.5 66.5t48.5 30.5z"/>
<glyph glyph-name="quotesinglbase" horiz-adv-x="222" unicode="‚" d="M77 -136v37q30 13 30 71v15v13h-30v88h69v-56q0 -47 -2 -71q-4 -45 -18.5 -66.5t-48.5 -30.5z"/>
<glyph glyph-name="quotedblleft" horiz-adv-x="333" unicode="“" d="M284 750v-37q-30 -13 -30 -71v-15v-13h30v-88h-69v56q0 47 2 71q4 45 18.5 66.5t48.5 30.5zM154 750v-37q-30 -13 -30 -71v-15v-13h30v-88h-69v56q0 47 2 71q4 45 18.5 66.5t48.5 30.5z"/>
<glyph glyph-name="quotedblright" horiz-adv-x="333" unicode="”" d="M49 526v37q30 13 30 71v15v13h-30v88h69v-56q0 -47 -2 -71q-4 -45 -18.5 -66.5t-48.5 -30.5zM179 526v37q30 13 30 71v15v13h-30v88h69v-56q0 -47 -2 -71q-4 -45 -18.5 -66.5t-48.5 -30.5z"/>
<glyph glyph-name="dagger" d="M252 539h160v-51h-160v-605h-58v605h-162v51h162v229h58v-229z" unicode="†"/>
<glyph glyph-name="daggerdbl" d="M251 157h162v-51h-162v-223h-58v223h-162v51h162v338h-160v51h160v222h58v-222h162v-51h-162v-338z" unicode="‡"/>
<glyph glyph-name="ellipsis" horiz-adv-x="1000" unicode="…" d="M868 0h-69v88h69v-88zM535 0h-69v88h69v-88zM202 0h-69v88h69v-88z"/>
<glyph glyph-name="perthousand" horiz-adv-x="1000" unicode="‰" d="M165 -15l304 756h44l-305 -756h-43zM168 684h-1q-77 0 -77 -136q0 -73 20 -104.5t60 -31.5q73 0 73 136q0 26 -2 45t-8.5 42t-23 36t-41.5 13zM168 728q131 0 131 -181q0 -179 -132 -179q-41 0 -69 14.5t-41 42t-18 56t-5 66.5q0 181 134 181zM835 314h-1q-77 0 -77 -136 q0 -73 20 -104.5t60 -31.5q73 0 73 136q0 26 -2 45t-8.5 42t-23 36t-41.5 13zM835 358q131 0 131 -181q0 -179 -132 -179q-41 0 -69 14.5t-41 42t-18 56t-5 66.5q0 181 134 181zM513 314h-1q-77 0 -77 -136q0 -73 20 -104.5t60 -31.5q73 0 73 136q0 26 -2 45t-8.5 42t-23 36 t-41.5 13zM513 358q131 0 131 -181q0 -179 -132 -179q-41 0 -69 14.5t-41 42t-18 56t-5 66.5q0 181 134 181z"/>
<glyph glyph-name="guilsinglleft" horiz-adv-x="333" unicode="‹" d="M231 130l-141 106v70l141 106v-60l-101 -81l101 -79v-62z"/>
<glyph glyph-name="guilsinglright" horiz-adv-x="333" unicode="›" d="M102 352v60l141 -106v-70l-141 -106v62l102 79z"/>
<glyph glyph-name="fraction" horiz-adv-x="167" unicode="⁄" d="M-170 0l452 744h50l-450 -744h-52z"/>
<glyph glyph-name="Euro" d="M2 252l18 57h50q-3 24 -3 55t1 46h-65l18 57h49q15 147 71 212t136 65q121 0 169 -119l-24 -76q-38 138 -145 138q-119 0 -141 -220h260l-18 -57h-246q0 -8 -0.5 -23t-0.5 -22q0 -24 2 -56h215l-17 -57h-193q24 -209 139 -209q82 0 142 113v-87q-53 -83 -142 -83 q-172 0 -204 266h-71z" unicode="€"/>
<glyph glyph-name="trademark" horiz-adv-x="722" unicode="™" d="M292 750v-51h-92v-370h-51v370h-92v51h235zM666 750v-421h-51v368h-2l-94 -368h-36l-93 368h-2v-368h-51v421h88l75 -297h2l78 297h86z"/>
<glyph glyph-name="partialdiff" horiz-adv-x="446" unicode="∂" d="M197 44h1q58 0 97 84.5t47 213.5q-12 41 -43 72t-74 31q-53 0 -91 -64t-38 -154q0 -86 27 -134.5t74 -48.5zM86 718l-22 47q60 54 134 54q86 0 146.5 -96.5t60.5 -293.5q0 -207 -55.5 -322t-156.5 -115q-74 0 -114.5 64.5t-40.5 169.5q0 119 54 195t126 76q47 0 81 -25.5 t48 -56.5h1q1 10 1 39q0 137 -45.5 224.5t-110.5 87.5q-61 0 -107 -48z"/>
<glyph glyph-name="product" horiz-adv-x="566" unicode="∏" d="M542 675h-85v-776h-57v776h-234v-776h-57v776h-85v56h518v-56z"/>
<glyph glyph-name="summation" horiz-adv-x="455" unicode="∑" d="M436 -101h-415v43l226 372l-215 374v43h388v-52h-311v-4l203 -352l-221 -362v-4h345v-58z"/>
<glyph glyph-name="minus" d="M424 271v-51h-403v51h403z" unicode="−"/>
<glyph glyph-name="radical" horiz-adv-x="484" unicode="√" d="M476 869l-183 -1029h-52l-137 495l-63 -23l-11 39l113 42l107 -381q13 -58 15 -82h1q1 11 11 77l156 862h43z"/>
<glyph glyph-name="infinity" horiz-adv-x="687" unicode="∞" d="M511 403h-2q-21 0 -44 -12.5t-35 -23.5t-35.5 -36t-25.5 -27q36 -39 54 -56.5t41.5 -30.5t47.5 -13q41 0 65.5 29.5t24.5 68.5q0 47 -25.5 74t-65.5 27zM181 204h2q14 0 28.5 5t24.5 10.5t24.5 18t21 19t21.5 23t19 20.5q-27 34 -42.5 51t-45 34.5t-59.5 17.5 q-41 0 -65 -29.5t-24 -72.5q1 -42 27.5 -69.5t67.5 -27.5zM644 307v-2q0 -62 -40 -101t-95 -39q-41 0 -78 24.5t-86 80.5q-30 -34 -49.5 -52.5t-52.5 -35.5t-67 -17q-55 0 -93.5 39.5t-38.5 97.5q0 60 39 100t99 40q46 0 84.5 -28t81.5 -79q56 61 82 80q40 27 85 27 q57 0 93 -37.5t36 -97.5z"/>
<glyph glyph-name="approxequal" horiz-adv-x="473" unicode="≈" d="M408 279l27 -21q-39 -88 -110 -88q-36 0 -98 38q-51 31 -78 31q-47 0 -84 -69l-28 20q40 89 116 89q15 0 31 -4.5t24.5 -9t24 -13.5t17.5 -10q3 -2 11.5 -7t12 -7t10.5 -5.5t11 -5t10.5 -4t12 -3t11.5 -0.5q43 0 79 69zM408 426l27 -20q-39 -88 -110 -88q-36 0 -98 37 q-51 31 -79 31q-27 0 -46 -17.5t-37 -50.5l-28 20q41 88 116 88q12 0 24 -2.5t23 -7.5t18 -8.5t18.5 -11t13.5 -8.5q3 -2 15.5 -9t17 -9t14 -6t17 -5.5t15.5 -1.5q43 0 79 69z"/>
<glyph glyph-name="notequal" horiz-adv-x="473" unicode="≠" d="M335 488l-38 -86h130v-41h-146l-57 -129h203v-41h-219l-44 -100l-32 15l38 85h-126v41h142l56 129h-198v41h214l44 100z"/>
<glyph glyph-name="lessequal" horiz-adv-x="473" unicode="≤" d="M428 39h-383v43h383v-43zM425 121l-376 208v43l376 208v-52l-332 -175v-3l332 -177v-52z"/>
<glyph glyph-name="greaterequal" horiz-adv-x="473" unicode="≥" d="M428 39h-383v43h383v-43zM49 580l377 -209v-42l-377 -208v52l332 176v2l-332 177v52z"/>
<glyph glyph-name="lozenge" horiz-adv-x="486" unicode="◊" d="M382 364l-123 289q-3 8 -6 18.5t-6 22t-4 15.5h-2q-6 -30 -16 -56l-123 -286l124 -291q11 -29 15 -55h3q10 41 15 54zM437 365l-171 -399h-49l-169 399l171 400h49z"/>
</font>
</defs>
</svg>
