<?xml version="1.0" standalone="no"?>
<!DOCTYPE svg PUBLIC "-//W3C//DTD SVG 1.1//EN" "http://www.w3.org/Graphics/SVG/1.1/DTD/svg11.dtd" >
<svg xmlns="http://www.w3.org/2000/svg">
<metadata></metadata>
<defs>
<font id="LucidaGrandeRegular" horiz-adv-x="1295" >
<font-face units-per-em="2048" ascent="1638" descent="-410" />
<missing-glyph horiz-adv-x="647" />
<glyph horiz-adv-x="0" />
<glyph horiz-adv-x="2048" />
<glyph unicode=" "  horiz-adv-x="647" />
<glyph unicode="&#x09;" horiz-adv-x="647" />
<glyph unicode="&#xa0;" horiz-adv-x="647" />
<glyph unicode="!" horiz-adv-x="648" d="M225 0v197h197v-197h-197zM225 1184v296h197v-296l-24 -789h-148z" />
<glyph unicode="&#x22;" horiz-adv-x="765" d="M111 1579h197l-24 -493h-148zM456 1579h198l-25 -493h-148z" />
<glyph unicode="#" d="M15 444l25 124h305l87 345h-324l25 123h329l112 444h127l-111 -444h263l111 444h128l-111 -444h299l-24 -123h-306l-87 -345h324l-25 -124h-329l-111 -444h-128l111 444h-263l-111 -444h-128l111 444h-299zM473 568h263l87 345h-264z" />
<glyph unicode="$" d="M216 83v170q226 -105 395 -105v531q-203 124 -277.5 219t-74.5 227q0 148 96.5 245.5t255.5 109.5v124h98v-124q146 0 321 -67v-161q-192 83 -321 93v-527q54 -33 81 -49q153 -93 209 -168t56 -186q0 -158 -93 -269.5t-253 -145.5v-123h-98v123q-176 0 -395 83zM432 1129 q0 -76 37 -127.5t142 -118.5v456q-179 -56 -179 -210zM709 160q173 62 173 225q0 71 -33 116.5t-140 119.5v-461z" />
<glyph unicode="%" horiz-adv-x="1369" d="M12 1111q0 170 85 269.5t230 99.5q144 0 229 -99.5t85 -268.5q0 -173 -85 -272.5t-234 -99.5q-141 0 -225.5 101t-84.5 270zM24 -37l1166 1554h154l-1165 -1554h-155zM160 1111q0 -124 45 -198t120 -74q78 0 123 73t45 200q0 123 -45 196.5t-121 73.5q-77 0 -122 -73.5 t-45 -197.5zM728 370q0 170 85 270t229 100t229.5 -99.5t85.5 -268.5q0 -174 -85 -273t-234 -99q-142 0 -226 100.5t-84 269.5zM876 370q0 -123 44.5 -197t119.5 -74q79 0 124 73t45 200q0 123 -45.5 196.5t-121.5 73.5t-121 -73.5t-45 -198.5z" />
<glyph unicode="&#x26;" horiz-adv-x="1428" d="M74 440q0 342 361 464q-100 181 -100 301q0 131 104.5 221.5t253.5 90.5q144 0 237.5 -84.5t93.5 -214.5q0 -222 -325 -386q149 -264 347 -493q91 132 91 374l-1 74h196q0 -328 -196 -566q90 -114 205 -221h-280l-73 88q-164 -125 -383 -125q-232 0 -381.5 134.5 t-149.5 342.5zM271 488q0 -157 106.5 -267t259.5 -110q139 0 265 91q-210 258 -400 585q-231 -92 -231 -299zM533 1214q0 -102 94 -257q212 97 212 258q0 70 -42.5 112t-111.5 42q-152 0 -152 -155z" />
<glyph unicode="'" horiz-adv-x="469" d="M111 1579h247l-50 -543h-148z" />
<glyph unicode="(" horiz-adv-x="666" d="M123 642q0 285 126.5 537.5t342.5 399.5v-136q-147 -160 -209.5 -344t-62.5 -457q0 -274 62.5 -458t209.5 -344v-136q-216 147 -342.5 399.5t-126.5 538.5z" />
<glyph unicode=")" horiz-adv-x="666" d="M74 -160q147 160 209 344t62 458q0 273 -62 457.5t-209 343.5v136q216 -147 342.5 -399.5t126.5 -537.5q0 -286 -126.5 -538.5t-342.5 -399.5v136z" />
<glyph unicode="*" horiz-adv-x="987" d="M110 1148l46 141l284 -125q-29 -25 -29 -67q0 -4 2 -15zM211 838l206 231q20 -45 70 -51l-156 -267zM420 1480h148l-31 -308q-18 11 -43 11t-43 -11zM500 1018q51 6 70 51l207 -231l-120 -87zM548 1164l284 125l45 -141l-303 -66q3 11 3 15q0 41 -29 67z" />
<glyph unicode="+" horiz-adv-x="1628" d="M222 518v148h518v518h148v-518h518v-148h-518v-518h-148v518h-518z" />
<glyph unicode="," horiz-adv-x="648" d="M200 0v247h247v-214q0 -329 -247 -354v74q96 27 96 227v20h-96z" />
<glyph unicode="-" horiz-adv-x="1111" d="M148 518v148h814v-148h-814z" />
<glyph unicode="." horiz-adv-x="648" d="M200 0v247h247v-247h-247z" />
<glyph unicode="/" horiz-adv-x="1074" d="M193 -296l533 1776h155l-533 -1776h-155z" />
<glyph unicode="0" d="M130 741q0 350 142.5 563t375.5 213t375.5 -213t142.5 -560q0 -356 -142.5 -568.5t-381.5 -212.5q-229 0 -370.5 215.5t-141.5 562.5zM340 741q0 -630 304 -630q313 0 313 636q0 622 -309 622q-308 0 -308 -628z" />
<glyph unicode="1" d="M308 0v148h296v1168l-296 -74v152l494 123v-1369h296v-148h-790z" />
<glyph unicode="2" d="M170 0v173q86 201 348 438l113 101q218 197 218 391q0 124 -74.5 195t-204.5 71q-154 0 -363 -119v174q197 93 391 93q208 0 334 -112t126 -297q0 -133 -63.5 -236t-236.5 -250l-76 -65q-237 -201 -274 -384h643v-173h-881z" />
<glyph unicode="3" d="M208 11v184q212 -84 334 -84q141 0 229.5 82.5t88.5 213.5q0 312 -437 312h-78v133l69 1q410 0 410 289q0 227 -270 227q-148 0 -326 -83v172q175 59 340 59q219 0 336.5 -88.5t117.5 -254.5q0 -261 -309 -372q358 -83 358 -392q0 -209 -138 -328t-379 -119 q-137 0 -346 48z" />
<glyph unicode="4" d="M105 419v149l666 912h185v-900h198v-161h-198v-419h-185v419h-666zM298 580h486v658z" />
<glyph unicode="5" d="M249 -6v176q147 -59 280 -59q146 0 229.5 86t83.5 237q0 333 -459 333q-52 0 -109 -7v720h749v-172h-576v-390q285 0 445 -131t160 -363q0 -216 -145.5 -338.5t-403.5 -122.5q-112 0 -254 31z" />
<glyph unicode="6" d="M137 707q0 385 158.5 598t446.5 213q132 0 330 -56v-172q-209 80 -342 80q-378 0 -378 -603q141 183 355 183q194 0 317.5 -128.5t123.5 -329.5q0 -231 -138.5 -380t-351.5 -149q-245 0 -383 197t-138 547zM360 522q0 -186 85.5 -298.5t226.5 -112.5q127 0 202.5 91.5 t75.5 245.5q0 168 -75.5 264t-209.5 96q-125 0 -215 -84t-90 -202z" />
<glyph unicode="7" d="M222 1295v185h950v-185q-569 -839 -637 -1295h-227q29 173 82.5 299t189.5 346l404 650h-762z" />
<glyph unicode="8" d="M177 364q0 266 294 442q-122 85 -169.5 158t-47.5 176q0 168 123 273t321 105q183 0 296.5 -89t113.5 -231q0 -215 -276 -392q335 -164 335 -423q0 -186 -140.5 -303t-362.5 -117q-218 0 -352.5 110.5t-134.5 290.5zM374 395q0 -127 82 -205.5t216 -78.5q129 0 210.5 67 t81.5 174q0 86 -50.5 145.5t-195.5 145.5l-140 83q-119 -92 -161.5 -160.5t-42.5 -170.5zM433 1177q0 -83 61.5 -148.5t227.5 -160.5q207 136 207 303q0 89 -69 143.5t-182 54.5q-109 0 -177 -53.5t-68 -138.5z" />
<glyph unicode="9" d="M156 991q0 227 138.5 376.5t348.5 149.5q241 0 380 -193.5t139 -529.5q0 -382 -169.5 -606.5t-458.5 -224.5q-116 0 -301 46v167q188 -65 320 -65q184 0 287.5 156.5t103.5 435.5q-150 -185 -341 -185q-187 0 -317 137.5t-130 335.5zM353 1030q0 -172 76.5 -271 t209.5 -99q125 0 213.5 85t88.5 205q0 189 -85.5 304.5t-224.5 115.5q-129 0 -203.5 -91.5t-74.5 -248.5z" />
<glyph unicode=":" horiz-adv-x="648" d="M225 0v197h197v-197h-197zM225 888v198h197v-198h-197z" />
<glyph unicode=";" horiz-adv-x="648" d="M225 0v197h197v-166q0 -303 -197 -352v74q71 37 71 224v23h-71zM225 888v198h197v-198h-197z" />
<glyph unicode="&#x3c;" horiz-adv-x="1628" d="M222 592l1184 592v-165l-851 -426v-2l851 -425v-166z" />
<glyph unicode="=" horiz-adv-x="1628" d="M222 333v148h1184v-148h-1184zM222 703v148h1184v-148h-1184z" />
<glyph unicode="&#x3e;" horiz-adv-x="1628" d="M222 0v166l851 425v2l-851 426v165l1184 -592z" />
<glyph unicode="?" horiz-adv-x="864" d="M37 1295v167q185 56 346 56q204 0 324 -91.5t120 -247.5q0 -88 -34.5 -151.5t-132.5 -156.5l-62 -58q-93 -88 -122 -147.5t-29 -160.5v-110h-197v54q0 112 30.5 186t116.5 173l63 73q157 180 157 295q0 89 -69 141t-186 52q-153 0 -325 -74zM250 0v197h197v-197h-197z " />
<glyph unicode="@" horiz-adv-x="1758" d="M93 576q0 339 244 620q130 149 315.5 235t375.5 86q279 0 467.5 -180t188.5 -447q0 -248 -151 -421t-367 -173q-166 0 -166 115q0 42 21 105l40 126h-12q-181 -346 -387 -346q-87 0 -140 61t-53 161q0 142 72 301.5t178 252.5q122 106 275 106q31 0 79 -3q49 -3 78 -3 h137l-126 -636q-6 -32 -6 -62q0 -67 76 -67q133 0 237 142t104 324q0 230 -159 382t-401 152q-317 0 -563 -249.5t-246 -570.5q0 -226 154.5 -369.5t397.5 -143.5q157 0 301 72l36 -102q-180 -81 -353 -81q-281 0 -464 173.5t-183 439.5zM623 560q0 -141 82 -141 q62 0 162 112.5t206 301.5l39 195q-92 33 -160 33q-100 0 -164 -56q-69 -59 -117 -189t-48 -256z" />
<glyph unicode="A" horiz-adv-x="1413" d="M17 0l587 1480h208l578 -1480h-227l-161 410h-627l-163 -410h-195zM436 566h505l-252 638z" />
<glyph unicode="B" horiz-adv-x="1178" d="M191 0v1480h384q222 0 340.5 -84t118.5 -242q0 -269 -304 -383q363 -111 363 -401q0 -130 -80 -231q-61 -77 -147 -108t-239 -31h-436zM399 157h43q231 0 299 29q130 55 130 204q0 132 -118 219.5t-295 87.5h-59v-540zM399 830h67q168 0 260.5 72t92.5 203 q0 218 -338 218h-82v-493z" />
<glyph unicode="C" horiz-adv-x="1417" d="M104 739q0 370 191.5 574t539.5 204q199 0 466 -65v-197q-304 105 -469 105q-241 0 -373 -163t-132 -460q0 -283 141 -446.5t385 -163.5q210 0 450 129v-180q-219 -113 -478 -113q-345 0 -533 202.5t-188 573.5z" />
<glyph unicode="D" horiz-adv-x="1534" d="M191 0v1480h492q220 0 355.5 -49t234.5 -166q157 -186 157 -490q0 -369 -195 -572t-549 -203h-495zM401 157h269q288 0 408 155q129 165 129 443q0 261 -127 410q-77 91 -184 124.5t-322 33.5h-173v-1166z" />
<glyph unicode="E" horiz-adv-x="1110" d="M191 0v1480h827v-157h-617v-475h517v-155h-517v-536h660v-157h-870z" />
<glyph unicode="F" horiz-adv-x="1098" d="M191 0v1480h827v-157h-617v-496h518v-155h-518v-672h-210z" />
<glyph unicode="G" horiz-adv-x="1480" d="M104 740q0 368 191 572.5t536 204.5q226 0 470 -67v-194q-306 104 -469 104q-240 0 -372.5 -163t-132.5 -459q0 -293 142 -455.5t398 -162.5q105 0 227 37v482h209v-599q-269 -77 -469 -77q-353 0 -541.5 201t-188.5 576z" />
<glyph unicode="H" horiz-adv-x="1505" d="M191 0v1480h210v-624h704v624h210v-1480h-210v699h-704v-699h-210z" />
<glyph unicode="I" horiz-adv-x="590" d="M190 0v1480h210v-1480h-210z" />
<glyph unicode="J" horiz-adv-x="637" d="M-184 -89q120 -39 212 -39q120 0 167.5 68.5t47.5 239.5v1300h210v-1293q0 -483 -457 -483q-70 0 -180 21v186z" />
<glyph unicode="K" horiz-adv-x="1337" d="M191 0v1480h197v-728l599 728h211l-580 -706l683 -774h-266l-647 750v-750h-197z" />
<glyph unicode="L" horiz-adv-x="1092" d="M191 0v1480h210v-1323h666v-157h-876z" />
<glyph unicode="M" horiz-adv-x="1764" d="M191 0v1480h291l410 -1145l422 1145h260v-1480h-196v1204l-408 -1105h-203l-396 1108v-1207h-180z" />
<glyph unicode="N" horiz-adv-x="1513" d="M191 0v1480h206l745 -1143v1143h180v-1480h-205l-746 1143v-1143h-180z" />
<glyph unicode="O" horiz-adv-x="1591" d="M104 741q0 353 188.5 564.5t503.5 211.5q314 0 503 -211t189 -563q0 -359 -189 -569.5t-512 -210.5q-308 0 -495.5 213.5t-187.5 564.5zM327 742q0 -290 123 -456t340 -166q227 0 351 163.5t124 461.5q0 289 -124.5 452t-344.5 163q-221 0 -345 -163.5t-124 -454.5z" />
<glyph unicode="P" horiz-adv-x="1132" d="M191 0v1480h403q268 0 385 -90.5t117 -297.5q0 -236 -160 -370t-444 -134h-93v-588h-208zM399 747h85q187 0 289 86t102 243q0 133 -80 190t-267 57h-129v-576z" />
<glyph unicode="Q" horiz-adv-x="1591" d="M104 740q0 354 188.5 565.5t503.5 211.5q316 0 504 -212t188 -568q0 -510 -379 -706q255 -112 529 -160l-133 -167q-349 113 -585 269q-94 -10 -145 -10q-298 0 -484.5 216t-186.5 561zM327 742q0 -290 123 -456t340 -166q227 0 351 163t124 461q0 289 -124 452.5 t-345 163.5t-345 -163.5t-124 -454.5z" />
<glyph unicode="R" d="M191 0v1480h448q213 0 326.5 -94t113.5 -273q0 -141 -78.5 -251t-220.5 -169l494 -693h-258l-421 626h-196v-626h-208zM399 783h68q396 0 396 311q0 229 -332 229h-132v-540z" />
<glyph unicode="S" horiz-adv-x="1103" d="M100 28v208q250 -116 411 -116q124 0 199.5 65t75.5 171q0 87 -49.5 148t-182.5 136l-102 59q-189 108 -266.5 203.5t-77.5 222.5q0 171 124 281.5t316 110.5q171 0 361 -57v-192q-234 92 -349 92q-109 0 -180 -58t-71 -146q0 -74 52 -131t190 -136l106 -60 q192 -109 268 -206t76 -233q0 -193 -142.5 -310t-377.5 -117q-149 0 -381 65z" />
<glyph unicode="T" d="M18 1323v157h1260v-157h-525v-1323h-210v1323h-525z" />
<glyph unicode="U" horiz-adv-x="1419" d="M179 548v932h210v-934q0 -223 82.5 -324.5t262.5 -101.5q176 0 249.5 95.5t73.5 323.5v941h184v-938q0 -194 -38 -298t-137 -183q-124 -98 -346 -98q-277 0 -409 143t-132 442z" />
<glyph unicode="V" horiz-adv-x="1339" d="M36 1480h210l458 -1212l442 1212h184l-537 -1480h-198z" />
<glyph unicode="W" horiz-adv-x="1752" d="M2 1480h202l303 -1169l279 1169h202l264 -1153l326 1153h171l-415 -1480h-209l-261 1141l-273 -1141h-208z" />
<glyph unicode="X" horiz-adv-x="1282" d="M16 0l491 743l-467 737h248l356 -558l374 558h198l-473 -715l485 -765h-248l-376 587l-389 -587h-199z" />
<glyph unicode="Y" horiz-adv-x="1276" d="M17 1480h240l384 -668l414 668h195l-529 -858v-622h-210v618z" />
<glyph unicode="Z" horiz-adv-x="1238" d="M95 0v168l795 1155h-746v157h998v-157l-795 -1155h795v-168h-1047z" />
<glyph unicode="[" horiz-adv-x="666" d="M197 -296v1875h395v-148h-222v-1579h222v-148h-395z" />
<glyph unicode="\" horiz-adv-x="1074" d="M193 1480h155l533 -1776h-155z" />
<glyph unicode="]" horiz-adv-x="666" d="M74 -148h222v1579h-222v148h395v-1875h-395v148z" />
<glyph unicode="^" d="M105 395l543 1085l543 -1085h-166l-377 754l-377 -754h-166z" />
<glyph unicode="_" horiz-adv-x="1024" d="M86 0h851v-148h-851v148z" />
<glyph unicode="`" horiz-adv-x="1258" d="M395 1604h228l241 -321h-148z" />
<glyph unicode="a" horiz-adv-x="1131" d="M103 273q0 178 149.5 273.5t429.5 95.5h46v131q0 189 -194 189q-156 0 -337 -96v163q199 81 373 81q182 0 268.5 -82t86.5 -255v-492q0 -169 104 -169q13 0 38 4l14 -109q-67 -32 -148 -32q-138 0 -176 163q-177 -163 -341 -163q-135 0 -224 84.5t-89 213.5zM300 305 q0 -71 50 -120t122 -49q123 0 256 109v281l-66 2q-162 0 -262 -61.5t-100 -161.5z" />
<glyph unicode="b" horiz-adv-x="1289" d="M197 -12v1591h197v-697q121 228 363 228q196 0 308.5 -143t112.5 -391q0 -270 -127.5 -435.5t-335.5 -165.5q-193 0 -321 148l-24 -135h-173zM394 259q152 -136 290 -136q136 0 210 113.5t74 319.5q0 382 -252 382q-165 0 -322 -179v-500z" />
<glyph unicode="c" horiz-adv-x="1049" d="M111 549q0 265 143.5 413t400.5 148q127 0 284 -35v-165q-167 49 -272 49q-151 0 -242.5 -113.5t-91.5 -302.5q0 -183 94 -296t246 -113q135 0 278 69v-170q-191 -58 -330 -58q-220 0 -365 163t-145 411z" />
<glyph unicode="d" horiz-adv-x="1289" d="M111 509q0 271 127.5 436t335.5 165q193 0 320 -148v617h198v-1579h-198v204q-120 -229 -362 -229q-196 0 -308.5 143t-112.5 391zM321 529q0 -381 252 -381q164 0 321 179v500q-153 135 -290 135q-135 0 -209 -113t-74 -320z" />
<glyph unicode="e" horiz-adv-x="1141" d="M111 548q0 247 133.5 405t341.5 158q197 0 304.5 -140t107.5 -398l-1 -61h-685q43 -387 379 -387q123 0 302 66v-156q-198 -60 -339 -60q-240 0 -391.5 159.5t-151.5 413.5zM321 660h479q0 303 -226 303q-227 0 -253 -303z" />
<glyph unicode="f" horiz-adv-x="753" d="M80 938v148h154v130q0 388 354 388q99 0 225 -33v-156q-133 41 -213 41q-97 0 -132.5 -46.5t-35.5 -172.5v-151h271v-148h-271v-938h-198v938h-154z" />
<glyph unicode="g" horiz-adv-x="1277" d="M111 550q0 248 131 404t339 156q182 0 313 -148v124h198v-790q0 -255 -26.5 -377.5t-99.5 -200.5q-129 -137 -401 -137q-190 0 -364 58l23 171q171 -81 337 -81q333 0 333 353v171q-109 -228 -358 -228q-195 0 -310 142t-115 383zM321 554q0 -357 251 -357q171 0 322 179 v451q-130 135 -283 135q-136 0 -213 -109t-77 -299z" />
<glyph unicode="h" horiz-adv-x="1271" d="M197 0v1579h197v-697q156 228 382 228q141 0 225 -89.5t84 -240.5v-780h-197v716q0 121 -35.5 172.5t-117.5 51.5q-181 0 -341 -237v-703h-197z" />
<glyph unicode="i" horiz-adv-x="592" d="M197 0v1086h197v-1086h-197zM197 1283v197h197v-197h-197z" />
<glyph unicode="j" horiz-adv-x="623" d="M-154 -213q138 -58 210 -58q104 0 138 54t34 217v1086h198v-1086q0 -419 -354 -419q-105 0 -226 50v156zM228 1283v197h198v-197h-198z" />
<glyph unicode="k" horiz-adv-x="1197" d="M197 0v1579h197v-1020l460 527h212l-439 -507l530 -579h-252l-511 557v-557h-197z" />
<glyph unicode="l" horiz-adv-x="592" d="M197 0v1579h197v-1579h-197z" />
<glyph unicode="m" horiz-adv-x="1912" d="M197 0v1086h197v-204q144 228 370 228q218 0 297 -228q140 229 364 229q144 0 223 -84.5t79 -236.5v-790h-198v759q0 186 -147 186q-153 0 -321 -217v-728h-198v759q0 187 -150 187q-149 0 -319 -218v-728h-197z" />
<glyph unicode="n" horiz-adv-x="1271" d="M197 0v1086h197v-204q156 228 382 228q141 0 225 -89.5t84 -240.5v-780h-197v716q0 121 -35.5 172.5t-117.5 51.5q-181 0 -341 -237v-703h-197z" />
<glyph unicode="o" horiz-adv-x="1258" d="M111 543q0 262 139.5 414.5t378.5 152.5t378.5 -152.5t139.5 -412.5q0 -266 -140 -418t-385 -152q-233 0 -372 154.5t-139 413.5zM321 543q0 -199 80 -309.5t224 -110.5q313 0 313 422q0 417 -309 417q-308 0 -308 -419z" />
<glyph unicode="p" horiz-adv-x="1289" d="M197 -395v1481h197v-204q121 228 363 228q196 0 308.5 -143t112.5 -391q0 -270 -127.5 -435.5t-335.5 -165.5q-193 0 -321 148v-518h-197zM394 259q152 -136 290 -136q136 0 210 113.5t74 319.5q0 382 -252 382q-165 0 -322 -179v-500z" />
<glyph unicode="q" horiz-adv-x="1289" d="M111 509q0 271 127.5 436t335.5 165q193 0 320 -148v124h198v-1481h-198v599q-120 -229 -362 -229q-196 0 -308.5 143t-112.5 391zM321 529q0 -381 252 -381q164 0 321 179v500q-153 135 -290 135q-135 0 -209 -113t-74 -320z" />
<glyph unicode="r" horiz-adv-x="838" d="M197 0v1086h197v-204q117 228 340 228q30 0 63 -5v-184q-51 17 -90 17q-187 0 -313 -222v-716h-197z" />
<glyph unicode="s" horiz-adv-x="1044" d="M157 38v181q193 -96 336 -96q85 0 141 46t56 115q0 101 -157 167l-115 49q-255 106 -255 305q0 142 100.5 223.5t275.5 81.5q91 0 225 -25l41 -8v-164q-165 49 -262 49q-190 0 -190 -138q0 -89 144 -150l95 -40q161 -68 228 -143.5t67 -188.5q0 -143 -113 -235t-289 -92 q-135 0 -328 63z" />
<glyph unicode="t" horiz-adv-x="766" d="M69 938v148h136v197l197 19v-216h284v-148h-284v-602q0 -213 184 -213q39 0 95 13v-136q-91 -25 -158 -25q-150 0 -234 86t-84 239v638h-136z" />
<glyph unicode="u" horiz-adv-x="1271" d="M185 306v780h197v-716q0 -122 35.5 -173.5t118.5 -51.5q180 0 340 237v704h197v-1086h-197v204q-157 -229 -381 -229q-142 0 -226 89.5t-84 241.5z" />
<glyph unicode="v" horiz-adv-x="1060" d="M18 1086h197l316 -845l333 845h184l-429 -1086h-197z" />
<glyph unicode="w" horiz-adv-x="1578" d="M12 1086h193l238 -841l257 841h197l225 -841l273 841h169l-354 -1086h-198l-230 841l-260 -841h-199z" />
<glyph unicode="x" horiz-adv-x="1256" d="M88 0l413 561l-401 525h234l317 -418l287 418h192l-376 -551l409 -535h-234l-327 430l-316 -430h-198z" />
<glyph unicode="y" horiz-adv-x="1070" d="M16 1086h213l311 -818l332 818h186l-593 -1481h-205l176 395z" />
<glyph unicode="z" horiz-adv-x="1174" d="M123 0v148l672 790h-641v148h884v-148l-672 -790h685v-148h-928z" />
<glyph unicode="{" horiz-adv-x="666" d="M25 568v148h49q152 0 152 161q0 68 -15 140l-19 87q-19 86 -19 168q0 133 95.5 215t262.5 92v-148h-28q-68 0 -113 -35.5t-45 -88.5q0 -24 13 -95l17 -102q11 -66 11 -157q0 -187 -147 -311q147 -125 147 -313q0 -90 -11 -156l-17 -102q-13 -71 -13 -96q0 -52 45.5 -87.5 t112.5 -35.5h28v-148q-168 10 -263 92.5t-95 215.5q0 82 19 167l19 87q15 72 15 142q0 160 -152 160h-49z" />
<glyph unicode="|" horiz-adv-x="765" d="M308 -296v1875h148v-1875h-148z" />
<glyph unicode="}" horiz-adv-x="666" d="M136 -148h28q67 0 112.5 35.5t45.5 87.5q0 25 -13 96l-17 102q-12 64 -12 158q0 185 147 311q-147 124 -147 312q0 92 12 156l17 102q13 71 13 97q0 51 -45.5 86.5t-112.5 35.5h-28v148q168 -10 263 -92t95 -216q0 -81 -19 -167l-19 -87q-16 -72 -16 -142 q0 -159 152 -159h50v-148h-50q-152 0 -152 -162q0 -68 16 -140l19 -87q19 -85 19 -168q0 -133 -95.5 -215t-262.5 -92v148z" />
<glyph unicode="~" d="M105 444q0 145 77 237t199 92q80 0 215 -71l107 -56l128 -69q45 -22 91 -22q55 0 88 50t33 135h148q-21 -333 -269 -333q-86 0 -242 80l-112 58l-119 62q-36 18 -71 18q-55 0 -90 -50.5t-35 -130.5h-148z" />
<glyph horiz-adv-x="648" d="M200 0v247h247v-214q0 -303 -247 -329v74q96 27 96 202v20h-96z" />
<glyph unicode="&#x201a;" horiz-adv-x="648" d="M200 0v247h247v-214q0 -303 -247 -329v74q96 27 96 202v20h-96z" />
<glyph horiz-adv-x="765" d="M111 0v197h197v-166q0 -303 -197 -352v74q71 37 71 224v23h-71zM456 0v197h198v-166q0 -303 -198 -352v74q71 37 71 224v23h-71z" />
<glyph unicode="&#x201e;" horiz-adv-x="765" d="M111 0v197h197v-166q0 -303 -197 -352v74q71 37 71 224v23h-71zM456 0v197h198v-166q0 -303 -198 -352v74q71 37 71 224v23h-71z" />
<glyph unicode="&#x85;" horiz-adv-x="2048" d="M243 0v197h197v-197h-197zM926 0v197h197v-197h-197zM1608 0v197h198v-197h-198z" />
<glyph unicode="&#x2026;" horiz-adv-x="2048" d="M243 0v197h197v-197h-197zM926 0v197h197v-197h-197zM1608 0v197h198v-197h-198z" />
<glyph horiz-adv-x="1258" d="M279 1283l241 321h218l241 -321h-148l-201 202h-2l-201 -202h-148z" />
<glyph unicode="&#x2c6;" horiz-adv-x="1258" d="M279 1283l241 321h218l241 -321h-148l-201 202h-2l-201 -202h-148z" />
<glyph horiz-adv-x="679" d="M111 543l395 444l98 -74l-296 -370l296 -370l-98 -74z" />
<glyph unicode="&#x2039;" horiz-adv-x="679" d="M111 543l395 444l98 -74l-296 -370l296 -370l-98 -74z" />
<glyph horiz-adv-x="2048" d="M104 740q0 353 188 565t501 212q181 0 336 -94v57h827v-157h-617v-475h517v-155l-517 6v-542h660v-157h-870v58q-156 -95 -347 -95q-304 0 -491 214.5t-187 562.5zM327 740q0 -292 124 -456t345 -164q173 0 253 108t80 341v342q0 234 -80.5 341.5t-255.5 107.5 q-219 0 -342.5 -164.5t-123.5 -455.5z" />
<glyph unicode="&#x152;" horiz-adv-x="2048" d="M104 740q0 353 188 565t501 212q181 0 336 -94v57h827v-157h-617v-475h517v-155l-517 6v-542h660v-157h-870v58q-156 -95 -347 -95q-304 0 -491 214.5t-187 562.5zM327 740q0 -292 124 -456t345 -164q173 0 253 108t80 341v342q0 234 -80.5 341.5t-255.5 107.5 q-219 0 -342.5 -164.5t-123.5 -455.5z" />
<glyph horiz-adv-x="648" d="M200 1012v214q0 327 247 353v-74q-96 -27 -96 -226v-21h96v-246h-247z" />
<glyph unicode="&#x2018;" horiz-adv-x="648" d="M200 1012v214q0 327 247 353v-74q-96 -27 -96 -226v-21h96v-246h-247z" />
<glyph horiz-adv-x="648" d="M200 1012v74q96 27 96 226v20h-96v247h247v-214q0 -329 -247 -353z" />
<glyph unicode="&#x2019;" horiz-adv-x="648" d="M200 1012v74q96 27 96 226v20h-96v247h247v-214q0 -329 -247 -353z" />
<glyph horiz-adv-x="765" d="M111 1061v166q0 303 197 352v-74q-70 -37 -70 -224v-23h70v-197h-197zM456 1061v166q0 303 198 352v-74q-71 -37 -71 -224v-23h71v-197h-198z" />
<glyph unicode="&#x201c;" horiz-adv-x="765" d="M111 1061v166q0 303 197 352v-74q-70 -37 -70 -224v-23h70v-197h-197zM456 1061v166q0 303 198 352v-74q-71 -37 -71 -224v-23h71v-197h-198z" />
<glyph horiz-adv-x="765" d="M111 1061v74q71 37 71 224v23h-71v197h197v-166q0 -303 -197 -352zM456 1061v74q71 37 71 224v23h-71v197h198v-166q0 -303 -198 -352z" />
<glyph unicode="&#x201d;" horiz-adv-x="765" d="M111 1061v74q71 37 71 224v23h-71v197h197v-166q0 -303 -197 -352zM456 1061v74q71 37 71 224v23h-71v197h198v-166q0 -303 -198 -352z" />
<glyph horiz-adv-x="1148" d="M222 597q0 142 104 244.5t248 102.5q146 0 249 -103t103 -249q0 -145 -103 -248.5t-248 -103.5q-148 0 -250.5 103.5t-102.5 253.5z" />
<glyph unicode="&#x2022;" horiz-adv-x="1148" d="M222 597q0 142 104 244.5t248 102.5q146 0 249 -103t103 -249q0 -145 -103 -248.5t-248 -103.5q-148 0 -250.5 103.5t-102.5 253.5z" />
<glyph horiz-adv-x="1024" d="M123 518v148h777v-148h-777z" />
<glyph unicode="&#x2013;" horiz-adv-x="1024" d="M123 518v148h777v-148h-777z" />
<glyph horiz-adv-x="2048" d="M222 518v148h1604v-148h-1604z" />
<glyph unicode="&#x2014;" horiz-adv-x="2048" d="M222 518v148h1604v-148h-1604z" />
<glyph horiz-adv-x="1258" d="M296 1283q11 234 185 234q73 0 135 -38l60 -37q56 -35 86 -35q69 0 77 110h123q-11 -234 -185 -234q-73 0 -135 39l-60 37q-56 34 -86 34q-68 0 -77 -110h-123z" />
<glyph unicode="&#x2dc;" horiz-adv-x="1258" d="M296 1283q11 234 185 234q73 0 135 -38l60 -37q56 -35 86 -35q69 0 77 110h123q-11 -234 -185 -234q-73 0 -135 39l-60 37q-56 34 -86 34q-68 0 -77 -110h-123z" />
<glyph horiz-adv-x="1653" d="M0 1357v123h666v-123h-247v-617h-172v617h-247zM790 740v740h233l156 -427l150 427h213v-740h-173v537l-163 -475h-118l-163 432v-494h-135z" />
<glyph unicode="&#x2122;" horiz-adv-x="1653" d="M0 1357v123h666v-123h-247v-617h-172v617h-247zM790 740v740h233l156 -427l150 427h213v-740h-173v537l-163 -475h-118l-163 432v-494h-135z" />
<glyph horiz-adv-x="679" d="M74 173l296 370l-296 370l99 74l394 -444l-394 -444z" />
<glyph unicode="&#x203a;" horiz-adv-x="679" d="M74 173l296 370l-296 370l99 74l394 -444l-394 -444z" />
<glyph horiz-adv-x="1901" d="M111 543q0 259 138.5 413t372.5 154q218 0 352 -200q122 200 365 200q417 0 417 -598h-673q29 -389 365 -389q140 0 308 71v-157q-193 -62 -350 -62q-281 0 -427 199q-130 -199 -359 -199q-232 0 -370.5 155t-138.5 413zM321 543q0 -196 79.5 -308t218.5 -112 q263 0 263 416q0 423 -258 423q-143 0 -223 -110.5t-80 -308.5zM1090 648h456q0 315 -214 315q-217 0 -242 -315z" />
<glyph unicode="&#x153;" horiz-adv-x="1901" d="M111 543q0 259 138.5 413t372.5 154q218 0 352 -200q122 200 365 200q417 0 417 -598h-673q29 -389 365 -389q140 0 308 71v-157q-193 -62 -350 -62q-281 0 -427 199q-130 -199 -359 -199q-232 0 -370.5 155t-138.5 413zM321 543q0 -196 79.5 -308t218.5 -112 q263 0 263 416q0 423 -258 423q-143 0 -223 -110.5t-80 -308.5zM1090 648h456q0 315 -214 315q-217 0 -242 -315z" />
<glyph horiz-adv-x="1276" d="M17 1480h240l384 -668l414 668h195l-529 -858v-622h-210v618zM349 1605v173h173v-173h-173zM744 1605v173h173v-173h-173z" />
<glyph unicode="&#x178;" horiz-adv-x="1276" d="M17 1480h240l384 -668l414 668h195l-529 -858v-622h-210v618zM349 1605v173h173v-173h-173zM744 1605v173h173v-173h-173z" />
<glyph unicode="&#xa1;" horiz-adv-x="648" d="M225 -99l25 790h148l24 -790v-296h-197v296zM225 888v198h197v-198h-197z" />
<glyph unicode="&#xa2;" d="M205 738q0 236 120 382t338 175v185h99v-185q133 -6 284 -46v-166q-177 60 -284 70v-840q136 0 284 68v-150q-149 -58 -284 -58v-173h-99v173q-203 20 -330.5 177t-127.5 388zM421 732q0 -330 242 -408v820q-242 -23 -242 -412z" />
<glyph unicode="&#xa3;" d="M247 0v173q210 67 210 316v227h-179v148h179v215q0 213 101.5 325.5t291.5 112.5q104 0 227 -30v-167q-124 49 -239 49q-184 0 -184 -230v-275h216v-148h-216v-127q0 -158 -36 -245t-137 -171h611v-173h-845z" />
<glyph unicode="&#xa4;" horiz-adv-x="1296" d="M98 278l195 195q-90 119 -90 267t90 267l-195 196l87 87l195 -195q125 89 267 89t267 -89l195 195l88 -87l-195 -196q89 -119 89 -267t-89 -267l195 -195l-88 -87l-195 195q-125 -90 -267 -90t-267 90l-195 -195zM351 740q0 -123 85 -209.5t207 -86.5q128 0 214 85 t86 212q0 124 -85.5 209.5t-210.5 85.5t-210.5 -85.5t-85.5 -210.5z" />
<glyph unicode="&#xa5;" d="M80 1480h233l360 -575l388 575h179l-500 -740h296v-123h-296v-148h296v-124h-296v-345h-197v345h-296v124h296v148h-296v123h296z" />
<glyph unicode="&#xa6;" horiz-adv-x="765" d="M308 -296v740h148v-740h-148zM308 839v740h148v-740h-148z" />
<glyph unicode="&#xa7;" d="M221 -80q242 -105 409 -105q131 0 211.5 49.5t80.5 130.5q0 67 -43 106t-187 101l-177 75q-289 124 -289 336q0 151 146 299q-141 94 -141 241q0 164 129 264t341 100q150 0 345 -47v-160q-202 59 -346 59q-130 0 -210 -51t-80 -134q0 -60 39 -99.5t136 -78.5l136 -55 q207 -83 286.5 -162.5t79.5 -203.5q0 -142 -149 -308q164 -95 164 -268q0 -157 -133.5 -250t-359.5 -93q-154 0 -388 74v180zM398 661q0 -134 229 -230l213 -90q74 99 74 194q0 72 -47.5 118.5t-172.5 99.5l-222 93q-74 -90 -74 -185z" />
<glyph unicode="&#xa8;" horiz-adv-x="1258" d="M345 1283v173h173v-173h-173zM740 1283v173h173v-173h-173z" />
<glyph unicode="&#xa9;" horiz-adv-x="1752" d="M99 740q0 322 228 549.5t549 227.5t549 -227.5t228 -547.5q0 -326 -228.5 -552.5t-557.5 -226.5q-315 0 -541.5 229.5t-226.5 547.5zM210 740q0 -272 194.5 -469t462.5 -197q326 0 518 239q157 195 157 428q0 231 -157 426q-192 239 -509 239t-509 -239 q-157 -195 -157 -427zM475 735q0 202 117.5 322.5t313.5 120.5q94 0 228 -26l26 -5v-123q-136 56 -244 56q-132 0 -212.5 -94t-80.5 -248q0 -153 84 -242t227 -89q113 0 226 62v-124q-141 -49 -255 -49q-189 0 -309.5 123t-120.5 316z" />
<glyph unicode="&#xaa;" horiz-adv-x="864" d="M123 1093q0 106 87.5 165.5t245.5 59.5h47v69q0 108 -117 108q-100 0 -206 -58v110q119 47 232 47q235 0 235 -204v-294q0 -89 56 -89q9 0 23 3l7 -83q-49 -18 -94 -18q-99 0 -123 92h-4q-98 -92 -198 -92q-84 0 -137.5 52t-53.5 132zM267 1112q0 -94 95 -94q68 0 141 63 v151h-39q-197 0 -197 -120z" />
<glyph unicode="&#xab;" horiz-adv-x="1073" d="M111 543l395 444l98 -74l-296 -370l296 -370l-98 -74zM506 543l395 444l98 -74l-296 -370l296 -370l-98 -74z" />
<glyph unicode="&#xac;" horiz-adv-x="1629" d="M222 740v148h1184v-592h-148v444h-1036z" />
<glyph unicode="&#xad;" horiz-adv-x="1111" d="M148 518v148h814v-148h-814z" />
<glyph unicode="&#xae;" horiz-adv-x="1752" d="M99 740q0 322 228 549.5t549 227.5t549 -227.5t228 -547.5q0 -326 -228.5 -552.5t-557.5 -226.5q-315 0 -541.5 229.5t-226.5 547.5zM210 740q0 -272 194.5 -469t462.5 -197q326 0 518 239q157 195 157 428q0 231 -157 426q-192 239 -509 239t-509 -239 q-157 -195 -157 -427zM620 317v840h265q254 0 254 -206q0 -152 -147 -243l253 -391h-157l-227 350h-106v-350h-135zM746 772h39q222 0 222 166q0 132 -186 132h-75v-298z" />
<glyph unicode="&#xb0;" horiz-adv-x="567" d="M64 1296q0 93 64.5 157t157.5 64t157.5 -64t64.5 -157q0 -94 -65 -158.5t-160 -64.5q-90 0 -154.5 65.5t-64.5 157.5zM163 1295q0 -49 36.5 -86t85.5 -37q51 0 87.5 36.5t36.5 86.5t-36.5 87t-86.5 37q-49 0 -86 -37t-37 -87z" />
<glyph unicode="&#xb1;" horiz-adv-x="1629" d="M222 0v148h1184v-148h-1184zM222 666v148h518v370h148v-370h518v-148h-518v-370h-148v370h-518z" />
<glyph unicode="&#xb2;" horiz-adv-x="864" d="M149 592v122q66 115 182 219l70 62q156 138 156 257q0 149 -163 149q-96 0 -223 -69v117q127 54 252 54q131 0 211 -68t80 -178q0 -140 -184 -290l-53 -44q-133 -109 -156 -209h389v-122h-561z" />
<glyph unicode="&#xb3;" horiz-adv-x="864" d="M158 599v122q130 -51 209 -51q82 0 133 45t51 118q0 182 -260 182h-51v93h44q244 0 244 166q0 129 -156 129q-93 0 -202 -50v112q110 38 226 38q282 0 282 -209q0 -157 -191 -223q220 -50 220 -238q0 -122 -86.5 -192.5t-236.5 -70.5q-107 0 -226 29z" />
<glyph unicode="&#xb4;" horiz-adv-x="1258" d="M395 1283l241 321h228l-321 -321h-148z" />
<glyph unicode="&#xb5;" horiz-adv-x="1283" d="M197 -395v1481h197v-716q0 -210 182 -210q165 0 312 222v704h197v-755q0 -185 59 -331h-216q-21 75 -40 204q-140 -229 -316 -229q-102 0 -178 50v-420h-197z" />
<glyph unicode="&#xb6;" d="M216 1154q0 177 96 251.5t323 74.5h395v-1776h-123v1653h-148v-1653h-124v1036q-197 14 -308 123.5t-111 290.5z" />
<glyph unicode="&#xb8;" horiz-adv-x="1258" d="M510 -330q46 -15 105 -15q103 0 103 74q0 96 -187 96l95 175h97l-60 -109q78 0 136 -47.5t58 -111.5q0 -69 -58.5 -116.5t-142.5 -47.5q-72 0 -146 21v81z" />
<glyph unicode="&#xb9;" horiz-adv-x="864" d="M185 592v111h222v648l-197 -49v114l345 87v-800h222v-111h-592z" />
<glyph unicode="&#xba;" horiz-adv-x="864" d="M123 1252q0 158 87.5 250t238.5 92q150 0 237.5 -92t87.5 -249q0 -161 -87.5 -252.5t-242.5 -91.5q-147 0 -234 93t-87 250zM280 1252q0 -243 167 -243q170 0 170 244q0 241 -168 241q-169 0 -169 -242z" />
<glyph unicode="&#xbb;" horiz-adv-x="1073" d="M74 173l296 370l-296 370l99 74l394 -444l-394 -444zM469 173l296 370l-296 370l98 74l395 -444l-395 -444z" />
<glyph unicode="&#xbc;" horiz-adv-x="1641" d="M76 1302v114l345 87v-911h-148v759zM150 -37l1088 1554h135l-1087 -1554h-136zM877 243v114l403 532h140v-529h123v-117h-123v-242h-136v242h-407zM1006 360h278v364z" />
<glyph unicode="&#xbd;" horiz-adv-x="1641" d="M76 1302v114l345 87v-911h-148v759zM99 -37l1088 1554h135l-1087 -1554h-136zM978 1v122q66 115 182 219l70 62q156 138 156 257q0 149 -163 149q-96 0 -223 -69v117q127 54 252 54q131 0 211 -68t80 -178q0 -140 -184 -290l-53 -44q-133 -109 -156 -209h389v-122h-561z " />
<glyph unicode="&#xbe;" horiz-adv-x="1641" d="M100 599v122q130 -51 209 -51q82 0 133 45t51 118q0 182 -260 182h-51v93h44q244 0 244 166q0 129 -156 129q-93 0 -202 -50v112q110 38 226 38q282 0 282 -209q0 -157 -191 -223q220 -50 220 -238q0 -122 -86.5 -192.5t-236.5 -70.5q-107 0 -226 29zM248 -37l1088 1554 h135l-1087 -1554h-136zM877 243v114l403 532h140v-529h123v-117h-123v-242h-136v242h-407zM1006 360h278v364z" />
<glyph unicode="&#xbf;" horiz-adv-x="864" d="M37 -94q0 89 34 152t133 156l61 59q93 89 122 147.5t29 159.5v111h198v-55q0 -111 -30.5 -185.5t-116.5 -173.5l-64 -72q-156 -179 -156 -295q0 -89 69 -141.5t186 -52.5q151 0 325 75v-167q-186 -56 -347 -56q-204 0 -323.5 91.5t-119.5 246.5zM416 888v198h198v-198 h-198z" />
<glyph unicode="&#xc0;" horiz-adv-x="1413" d="M17 0l587 1480h208l578 -1480h-227l-161 410h-627l-163 -410h-195zM388 1926h228l241 -321h-148zM436 566h505l-252 638z" />
<glyph unicode="&#xc1;" horiz-adv-x="1413" d="M17 0l587 1480h208l578 -1480h-227l-161 410h-627l-163 -410h-195zM436 566h505l-252 638zM561 1605l241 321h228l-321 -321h-148z" />
<glyph unicode="&#xc2;" horiz-adv-x="1413" d="M17 0l587 1480h208l578 -1480h-227l-161 410h-627l-163 -410h-195zM359 1605l241 321h218l241 -321h-148l-201 202h-2l-201 -202h-148zM436 566h505l-252 638z" />
<glyph unicode="&#xc3;" horiz-adv-x="1413" d="M17 0l587 1480h208l578 -1480h-227l-161 410h-627l-163 -410h-195zM370 1605q11 234 185 234q73 0 135 -38l60 -37q56 -35 86 -35q69 0 77 110h123q-11 -234 -185 -234q-73 0 -135 39l-60 37q-56 34 -86 34q-68 0 -77 -110h-123zM436 566h505l-252 638z" />
<glyph unicode="&#xc4;" horiz-adv-x="1413" d="M17 0l587 1480h208l578 -1480h-227l-161 410h-627l-163 -410h-195zM421 1605v173h173v-173h-173zM436 566h505l-252 638zM816 1605v173h173v-173h-173z" />
<glyph unicode="&#xc5;" horiz-adv-x="1413" d="M17 0l587 1480h208l578 -1480h-227l-161 410h-627l-163 -410h-195zM436 566h505l-252 638zM482 1709q0 94 66 160.5t161 66.5q94 0 160.5 -66t66.5 -161q0 -96 -66.5 -161.5t-163.5 -65.5q-93 0 -158.5 66.5t-65.5 160.5zM568 1709q0 -58 41 -99.5t98 -41.5 q60 0 101.5 41t41.5 101q0 58 -41.5 99t-99.5 41q-59 0 -100 -41t-41 -100z" />
<glyph unicode="&#xc6;" horiz-adv-x="1857" d="M18 0l861 1480h883v-157h-618v-475h518v-155h-518v-536h664v-157h-874v414h-483l-241 -414h-192zM540 569h394v671z" />
<glyph unicode="&#xc7;" horiz-adv-x="1417" d="M104 739q0 370 191.5 574t539.5 204q199 0 466 -65v-197q-304 105 -469 105q-241 0 -373 -163t-132 -460q0 -283 141 -446.5t385 -163.5q210 0 450 129v-180q-219 -113 -478 -113q-345 0 -533 202.5t-188 573.5zM653 -330q46 -15 105 -15q103 0 103 74q0 96 -187 96 l95 175h97l-60 -109q78 0 136 -47.5t58 -111.5q0 -69 -58.5 -116.5t-142.5 -47.5q-72 0 -146 21v81z" />
<glyph unicode="&#xc8;" horiz-adv-x="1110" d="M191 0v1480h827v-157h-617v-475h517v-155h-517v-536h660v-157h-870zM298 1926h228l241 -321h-148z" />
<glyph unicode="&#xc9;" horiz-adv-x="1110" d="M191 0v1480h827v-157h-617v-475h517v-155h-517v-536h660v-157h-870zM456 1605l241 321h228l-321 -321h-148z" />
<glyph unicode="&#xca;" horiz-adv-x="1110" d="M191 0v1480h827v-157h-617v-475h517v-155h-517v-536h660v-157h-870zM266 1605l241 321h218l241 -321h-148l-201 202h-2l-201 -202h-148z" />
<glyph unicode="&#xcb;" horiz-adv-x="1110" d="M191 0v1480h827v-157h-617v-475h517v-155h-517v-536h660v-157h-870zM344 1605v173h173v-173h-173zM739 1605v173h173v-173h-173z" />
<glyph unicode="&#xcc;" horiz-adv-x="590" d="M-26 1926h228l241 -321h-148zM190 0v1480h210v-1480h-210z" />
<glyph unicode="&#xcd;" horiz-adv-x="590" d="M148 1605l241 321h228l-321 -321h-148zM190 0v1480h210v-1480h-210z" />
<glyph unicode="&#xce;" horiz-adv-x="590" d="M-54 1605l241 321h218l241 -321h-148l-201 202h-2l-201 -202h-148zM190 0v1480h210v-1480h-210z" />
<glyph unicode="&#xcf;" horiz-adv-x="590" d="M12 1605v173h173v-173h-173zM190 0v1480h210v-1480h-210zM407 1605v173h173v-173h-173z" />
<glyph unicode="&#xd0;" horiz-adv-x="1553" d="M37 688v148h173v644h492q221 0 356 -49t234 -166q157 -186 157 -490q0 -343 -184 -556q-188 -219 -560 -219h-495v688h-173zM420 157h269q289 0 408 155q129 165 129 443q0 261 -127 410q-77 91 -184 124.5t-322 33.5h-173v-487h333v-148h-333v-531z" />
<glyph unicode="&#xd1;" horiz-adv-x="1513" d="M191 0v1480h206l745 -1143v1143h180v-1480h-205l-746 1143v-1143h-180zM448 1605q11 234 185 234q73 0 135 -38l60 -37q56 -35 86 -35q69 0 77 110h123q-11 -234 -185 -234q-73 0 -135 39l-60 37q-56 34 -86 34q-68 0 -77 -110h-123z" />
<glyph unicode="&#xd2;" horiz-adv-x="1591" d="M104 741q0 353 188.5 564.5t503.5 211.5q314 0 503 -211t189 -563q0 -359 -189 -569.5t-512 -210.5q-308 0 -495.5 213.5t-187.5 564.5zM327 742q0 -290 123 -456t340 -166q227 0 351 163.5t124 461.5q0 289 -124.5 452t-344.5 163q-221 0 -345 -163.5t-124 -454.5z M475 1926h228l241 -321h-148z" />
<glyph unicode="&#xd3;" horiz-adv-x="1591" d="M104 741q0 353 188.5 564.5t503.5 211.5q314 0 503 -211t189 -563q0 -359 -189 -569.5t-512 -210.5q-308 0 -495.5 213.5t-187.5 564.5zM327 742q0 -290 123 -456t340 -166q227 0 351 163.5t124 461.5q0 289 -124.5 452t-344.5 163q-221 0 -345 -163.5t-124 -454.5z M649 1605l241 321h228l-321 -321h-148z" />
<glyph unicode="&#xd4;" horiz-adv-x="1591" d="M104 741q0 353 188.5 564.5t503.5 211.5q314 0 503 -211t189 -563q0 -359 -189 -569.5t-512 -210.5q-308 0 -495.5 213.5t-187.5 564.5zM327 742q0 -290 123 -456t340 -166q227 0 351 163.5t124 461.5q0 289 -124.5 452t-344.5 163q-221 0 -345 -163.5t-124 -454.5z M447 1605l241 321h218l241 -321h-148l-201 202h-2l-201 -202h-148z" />
<glyph unicode="&#xd5;" horiz-adv-x="1591" d="M104 741q0 353 188.5 564.5t503.5 211.5q314 0 503 -211t189 -563q0 -359 -189 -569.5t-512 -210.5q-308 0 -495.5 213.5t-187.5 564.5zM327 742q0 -290 123 -456t340 -166q227 0 351 163.5t124 461.5q0 289 -124.5 452t-344.5 163q-221 0 -345 -163.5t-124 -454.5z M464 1605q11 234 185 234q73 0 135 -38l60 -37q56 -35 86 -35q69 0 77 110h123q-11 -234 -185 -234q-73 0 -135 39l-60 37q-56 34 -86 34q-68 0 -77 -110h-123z" />
<glyph unicode="&#xd6;" horiz-adv-x="1591" d="M104 741q0 353 188.5 564.5t503.5 211.5q314 0 503 -211t189 -563q0 -359 -189 -569.5t-512 -210.5q-308 0 -495.5 213.5t-187.5 564.5zM327 742q0 -290 123 -456t340 -166q227 0 351 163.5t124 461.5q0 289 -124.5 452t-344.5 163q-221 0 -345 -163.5t-124 -454.5z M513 1605v173h173v-173h-173zM908 1605v173h173v-173h-173z" />
<glyph unicode="&#xd7;" horiz-adv-x="1628" d="M222 105l487 487l-487 488l105 104l487 -487l488 487l104 -104l-487 -488l487 -487l-104 -105l-488 487l-487 -487z" />
<glyph unicode="&#xd8;" horiz-adv-x="1591" d="M104 741q0 353 188.5 564.5t502.5 211.5q237 0 413 -126l97 126h172l-169 -220q180 -216 180 -559q0 -351 -188.5 -563t-500.5 -212q-245 0 -415 126l-96 -126h-173l169 221q-180 217 -180 557zM327 742q0 -233 83 -393l687 898q-119 113 -302 113q-220 0 -344 -163.5 t-124 -454.5zM495 234q119 -114 303 -114q219 0 343 164.5t124 454.5q0 235 -83 393z" />
<glyph unicode="&#xd9;" horiz-adv-x="1419" d="M179 548v932h210v-934q0 -223 82.5 -324.5t262.5 -101.5q176 0 249.5 95.5t73.5 323.5v941h184v-938q0 -194 -38 -298t-137 -183q-124 -98 -346 -98q-277 0 -409 143t-132 442zM401 1926h228l241 -321h-148z" />
<glyph unicode="&#xda;" horiz-adv-x="1419" d="M179 548v932h210v-934q0 -223 82.5 -324.5t262.5 -101.5q176 0 249.5 95.5t73.5 323.5v941h184v-938q0 -194 -38 -298t-137 -183q-124 -98 -346 -98q-277 0 -409 143t-132 442zM575 1605l241 321h228l-321 -321h-148z" />
<glyph unicode="&#xdb;" horiz-adv-x="1419" d="M179 548v932h210v-934q0 -223 82.5 -324.5t262.5 -101.5q176 0 249.5 95.5t73.5 323.5v941h184v-938q0 -194 -38 -298t-137 -183q-124 -98 -346 -98q-277 0 -409 143t-132 442zM373 1605l241 321h218l241 -321h-148l-201 202h-2l-201 -202h-148z" />
<glyph unicode="&#xdc;" horiz-adv-x="1419" d="M179 548v932h210v-934q0 -223 82.5 -324.5t262.5 -101.5q176 0 249.5 95.5t73.5 323.5v941h184v-938q0 -194 -38 -298t-137 -183q-124 -98 -346 -98q-277 0 -409 143t-132 442zM427 1605v173h173v-173h-173zM822 1605v173h173v-173h-173z" />
<glyph unicode="&#xdd;" horiz-adv-x="1276" d="M17 1480h240l384 -668l414 668h195l-529 -858v-622h-210v618zM493 1605l241 321h228l-321 -321h-148z" />
<glyph unicode="&#xde;" horiz-adv-x="1132" d="M191 0v1480h208v-293h195q268 0 385 -91t117 -297q0 -237 -160 -370.5t-444 -133.5h-93v-295h-208zM399 449h109q175 0 271 87t96 246q0 133 -80 190t-267 57h-129v-580z" />
<glyph unicode="&#xdf;" horiz-adv-x="1225" d="M197 0v1151q0 248 84 350.5t286 102.5q163 0 262 -72.5t99 -191.5q0 -122 -131 -295q-77 -101 -77 -142q0 -60 110 -154l161 -136q173 -146 173 -314q0 -150 -94 -237t-256 -87q-139 0 -280 58v169q183 -79 283 -79q73 0 117 43t44 115q0 86 -115 184l-191 164 q-125 108 -125 219q0 84 100 238q83 127 83 218q0 152 -170 152q-166 0 -166 -222v-1234h-197z" />
<glyph unicode="&#xe0;" horiz-adv-x="1131" d="M103 273q0 178 149.5 273.5t429.5 95.5h46v131q0 189 -194 189q-156 0 -337 -96v163q199 81 373 81q182 0 268.5 -82t86.5 -255v-492q0 -169 104 -169q13 0 38 4l14 -109q-67 -32 -148 -32q-138 0 -176 163q-177 -163 -341 -163q-135 0 -224 84.5t-89 213.5zM255 1604 h228l241 -321h-148zM300 305q0 -71 50 -120t122 -49q123 0 256 109v281l-66 2q-162 0 -262 -61.5t-100 -161.5z" />
<glyph unicode="&#xe1;" horiz-adv-x="1131" d="M103 273q0 178 149.5 273.5t429.5 95.5h46v131q0 189 -194 189q-156 0 -337 -96v163q199 81 373 81q182 0 268.5 -82t86.5 -255v-492q0 -169 104 -169q13 0 38 4l14 -109q-67 -32 -148 -32q-138 0 -176 163q-177 -163 -341 -163q-135 0 -224 84.5t-89 213.5zM300 305 q0 -71 50 -120t122 -49q123 0 256 109v281l-66 2q-162 0 -262 -61.5t-100 -161.5zM426 1283l241 321h228l-321 -321h-148z" />
<glyph unicode="&#xe2;" horiz-adv-x="1131" d="M103 273q0 178 149.5 273.5t429.5 95.5h46v131q0 189 -194 189q-156 0 -337 -96v163q199 81 373 81q182 0 268.5 -82t86.5 -255v-492q0 -169 104 -169q13 0 38 4l14 -109q-67 -32 -148 -32q-138 0 -176 163q-177 -163 -341 -163q-135 0 -224 84.5t-89 213.5zM221 1283 l241 321h218l241 -321h-148l-201 202h-2l-201 -202h-148zM300 305q0 -71 50 -120t122 -49q123 0 256 109v281l-66 2q-162 0 -262 -61.5t-100 -161.5z" />
<glyph unicode="&#xe3;" horiz-adv-x="1131" d="M103 273q0 178 149.5 273.5t429.5 95.5h46v131q0 189 -194 189q-156 0 -337 -96v163q199 81 373 81q182 0 268.5 -82t86.5 -255v-492q0 -169 104 -169q13 0 38 4l14 -109q-67 -32 -148 -32q-138 0 -176 163q-177 -163 -341 -163q-135 0 -224 84.5t-89 213.5zM236 1283 q11 234 185 234q73 0 135 -38l60 -37q56 -35 86 -35q69 0 77 110h123q-11 -234 -185 -234q-73 0 -135 39l-60 37q-56 34 -86 34q-68 0 -77 -110h-123zM300 305q0 -71 50 -120t122 -49q123 0 256 109v281l-66 2q-162 0 -262 -61.5t-100 -161.5z" />
<glyph unicode="&#xe4;" horiz-adv-x="1131" d="M103 273q0 178 149.5 273.5t429.5 95.5h46v131q0 189 -194 189q-156 0 -337 -96v163q199 81 373 81q182 0 268.5 -82t86.5 -255v-492q0 -169 104 -169q13 0 38 4l14 -109q-67 -32 -148 -32q-138 0 -176 163q-177 -163 -341 -163q-135 0 -224 84.5t-89 213.5zM285 1283 v173h173v-173h-173zM300 305q0 -71 50 -120t122 -49q123 0 256 109v281l-66 2q-162 0 -262 -61.5t-100 -161.5zM680 1283v173h173v-173h-173z" />
<glyph unicode="&#xe5;" horiz-adv-x="1131" d="M103 273q0 178 149.5 273.5t429.5 95.5h46v131q0 189 -194 189q-156 0 -337 -96v163q199 81 373 81q182 0 268.5 -82t86.5 -255v-492q0 -169 104 -169q13 0 38 4l14 -109q-67 -32 -148 -32q-138 0 -176 163q-177 -163 -341 -163q-135 0 -224 84.5t-89 213.5zM300 305 q0 -71 50 -120t122 -49q123 0 256 109v281l-66 2q-162 0 -262 -61.5t-100 -161.5zM342 1510q0 94 66 160.5t161 66.5q94 0 160.5 -66t66.5 -161q0 -96 -66.5 -161.5t-163.5 -65.5q-93 0 -158.5 66.5t-65.5 160.5zM428 1510q0 -58 41 -99.5t98 -41.5q60 0 101.5 41t41.5 101 q0 58 -41.5 99t-99.5 41q-59 0 -100 -41t-41 -100z" />
<glyph unicode="&#xe6;" horiz-adv-x="1743" d="M103 273q0 178 149.5 273.5t429.5 95.5h46v131q0 189 -194 189q-156 0 -337 -96v163q199 81 373 81q195 0 307 -121q123 121 303 121q418 0 418 -598h-672q28 -389 365 -389q140 0 307 71v-157q-193 -62 -359 -62q-285 0 -430 218q-190 -218 -393 -218q-135 0 -224 84.5 t-89 213.5zM300 305q0 -71 50 -120t122 -49q123 0 256 109v281l-66 2q-162 0 -262 -61.5t-100 -161.5zM932 648h456q0 315 -214 315q-217 0 -242 -315z" />
<glyph unicode="&#xe7;" horiz-adv-x="1049" d="M111 549q0 265 143.5 413t400.5 148q127 0 284 -35v-165q-167 49 -272 49q-151 0 -242.5 -113.5t-91.5 -302.5q0 -183 94 -296t246 -113q135 0 278 69v-170q-191 -58 -330 -58q-220 0 -365 163t-145 411zM478 -330q46 -15 105 -15q103 0 103 74q0 96 -187 96l95 175h97 l-60 -109q78 0 136 -47.5t58 -111.5q0 -69 -58.5 -116.5t-142.5 -47.5q-72 0 -146 21v81z" />
<glyph unicode="&#xe8;" horiz-adv-x="1141" d="M111 548q0 247 133.5 405t341.5 158q197 0 304.5 -140t107.5 -398l-1 -61h-685q43 -387 379 -387q123 0 302 66v-156q-198 -60 -339 -60q-240 0 -391.5 159.5t-151.5 413.5zM249 1604h228l241 -321h-148zM321 660h479q0 303 -226 303q-227 0 -253 -303z" />
<glyph unicode="&#xe9;" horiz-adv-x="1141" d="M111 548q0 247 133.5 405t341.5 158q197 0 304.5 -140t107.5 -398l-1 -61h-685q43 -387 379 -387q123 0 302 66v-156q-198 -60 -339 -60q-240 0 -391.5 159.5t-151.5 413.5zM321 660h479q0 303 -226 303q-227 0 -253 -303zM422 1283l241 321h228l-321 -321h-148z" />
<glyph unicode="&#xea;" horiz-adv-x="1141" d="M111 548q0 247 133.5 405t341.5 158q197 0 304.5 -140t107.5 -398l-1 -61h-685q43 -387 379 -387q123 0 302 66v-156q-198 -60 -339 -60q-240 0 -391.5 159.5t-151.5 413.5zM237 1283l241 321h218l241 -321h-148l-201 202h-2l-201 -202h-148zM321 660h479q0 303 -226 303 q-227 0 -253 -303z" />
<glyph unicode="&#xeb;" horiz-adv-x="1141" d="M111 548q0 247 133.5 405t341.5 158q197 0 304.5 -140t107.5 -398l-1 -61h-685q43 -387 379 -387q123 0 302 66v-156q-198 -60 -339 -60q-240 0 -391.5 159.5t-151.5 413.5zM309 1283v173h173v-173h-173zM321 660h479q0 303 -226 303q-227 0 -253 -303zM704 1283v173h173 v-173h-173z" />
<glyph unicode="&#xec;" horiz-adv-x="592" d="M-24 1604h228l241 -321h-148zM197 0v1086h197v-1086h-197z" />
<glyph unicode="&#xed;" horiz-adv-x="592" d="M148 1283l241 321h228l-321 -321h-148zM197 0v1086h197v-1086h-197z" />
<glyph unicode="&#xee;" horiz-adv-x="592" d="M-54 1283l241 321h218l241 -321h-148l-201 202h-2l-201 -202h-148zM197 0v1086h197v-1086h-197z" />
<glyph unicode="&#xef;" horiz-adv-x="592" d="M12 1283v173h173v-173h-173zM197 0v1086h197v-1086h-197zM407 1283v173h173v-173h-173z" />
<glyph unicode="&#xf0;" horiz-adv-x="1234" d="M109 538q0 244 138 397t358 153q62 0 137 -21q-80 145 -247 250l-168 -168l-87 87l144 144q-117 51 -274 51v148q221 0 397 -76l169 169l87 -87l-143 -143q240 -159 371 -384.5t131 -481.5q0 -271 -139 -436t-368 -165q-227 0 -366.5 155t-139.5 408zM319 537 q0 -189 80.5 -301.5t216.5 -112.5q144 0 225.5 113t81.5 312q0 395 -299 395q-143 0 -224 -108t-81 -298z" />
<glyph unicode="&#xf1;" horiz-adv-x="1271" d="M197 0v1086h197v-204q156 228 382 228q141 0 225 -89.5t84 -240.5v-780h-197v716q0 121 -35.5 172.5t-117.5 51.5q-181 0 -341 -237v-703h-197zM333 1283q11 234 185 234q73 0 135 -38l60 -37q56 -35 86 -35q69 0 77 110h123q-11 -234 -185 -234q-73 0 -135 39l-60 37 q-56 34 -86 34q-68 0 -77 -110h-123z" />
<glyph unicode="&#xf2;" horiz-adv-x="1258" d="M111 543q0 262 139.5 414.5t378.5 152.5t378.5 -152.5t139.5 -412.5q0 -266 -140 -418t-385 -152q-233 0 -372 154.5t-139 413.5zM310 1604h228l241 -321h-148zM321 543q0 -199 80 -309.5t224 -110.5q313 0 313 422q0 417 -309 417q-308 0 -308 -419z" />
<glyph unicode="&#xf3;" horiz-adv-x="1258" d="M111 543q0 262 139.5 414.5t378.5 152.5t378.5 -152.5t139.5 -412.5q0 -266 -140 -418t-385 -152q-233 0 -372 154.5t-139 413.5zM321 543q0 -199 80 -309.5t224 -110.5q313 0 313 422q0 417 -309 417q-308 0 -308 -419zM481 1283l241 321h228l-321 -321h-148z" />
<glyph unicode="&#xf4;" horiz-adv-x="1258" d="M111 543q0 262 139.5 414.5t378.5 152.5t378.5 -152.5t139.5 -412.5q0 -266 -140 -418t-385 -152q-233 0 -372 154.5t-139 413.5zM279 1283l241 321h218l241 -321h-148l-201 202h-2l-201 -202h-148zM321 543q0 -199 80 -309.5t224 -110.5q313 0 313 422q0 417 -309 417 q-308 0 -308 -419z" />
<glyph unicode="&#xf5;" horiz-adv-x="1258" d="M111 543q0 262 139.5 414.5t378.5 152.5t378.5 -152.5t139.5 -412.5q0 -266 -140 -418t-385 -152q-233 0 -372 154.5t-139 413.5zM296 1283q11 234 185 234q73 0 135 -38l60 -37q56 -35 86 -35q69 0 77 110h123q-11 -234 -185 -234q-73 0 -135 39l-60 37q-56 34 -86 34 q-68 0 -77 -110h-123zM321 543q0 -199 80 -309.5t224 -110.5q313 0 313 422q0 417 -309 417q-308 0 -308 -419z" />
<glyph unicode="&#xf6;" horiz-adv-x="1258" d="M111 543q0 262 139.5 414.5t378.5 152.5t378.5 -152.5t139.5 -412.5q0 -266 -140 -418t-385 -152q-233 0 -372 154.5t-139 413.5zM321 543q0 -199 80 -309.5t224 -110.5q313 0 313 422q0 417 -309 417q-308 0 -308 -419zM345 1283v173h173v-173h-173zM740 1283v173h173 v-173h-173z" />
<glyph unicode="&#xf7;" horiz-adv-x="1629" d="M222 518v148h1184v-148h-1184zM691 0v247h247v-247h-247zM691 938v246h247v-246h-247z" />
<glyph unicode="&#xf8;" horiz-adv-x="1258" d="M111 -25l130 166l-3 3q-127 146 -127 396q0 264 139 417t379 153q178 0 304 -85l68 85h146l-129 -165l2 -4q127 -159 127 -397q0 -262 -139 -415.5t-378 -153.5q-174 0 -304 85l-67 -85h-148zM321 547q0 -145 43 -249l463 590q-81 74 -196 74q-147 0 -228.5 -109.5 t-81.5 -305.5zM432 196q77 -73 195 -73q147 0 229 109.5t82 305.5q0 136 -43 249z" />
<glyph unicode="&#xf9;" horiz-adv-x="1271" d="M185 306v780h197v-716q0 -122 35.5 -173.5t118.5 -51.5q180 0 340 237v704h197v-1086h-197v204q-157 -229 -381 -229q-142 0 -226 89.5t-84 241.5zM310 1604h228l241 -321h-148z" />
<glyph unicode="&#xfa;" horiz-adv-x="1271" d="M185 306v780h197v-716q0 -122 35.5 -173.5t118.5 -51.5q180 0 340 237v704h197v-1086h-197v204q-157 -229 -381 -229q-142 0 -226 89.5t-84 241.5zM481 1283l241 321h228l-321 -321h-148z" />
<glyph unicode="&#xfb;" horiz-adv-x="1271" d="M185 306v780h197v-716q0 -122 35.5 -173.5t118.5 -51.5q180 0 340 237v704h197v-1086h-197v204q-157 -229 -381 -229q-142 0 -226 89.5t-84 241.5zM279 1283l241 321h218l241 -321h-148l-201 202h-2l-201 -202h-148z" />
<glyph unicode="&#xfc;" horiz-adv-x="1271" d="M185 306v780h197v-716q0 -122 35.5 -173.5t118.5 -51.5q180 0 340 237v704h197v-1086h-197v204q-157 -229 -381 -229q-142 0 -226 89.5t-84 241.5zM345 1283v173h173v-173h-173zM740 1283v173h173v-173h-173z" />
<glyph unicode="&#xfd;" horiz-adv-x="1070" d="M16 1086h213l311 -818l332 818h186l-593 -1481h-205l176 395zM394 1283l241 321h228l-321 -321h-148z" />
<glyph unicode="&#xfe;" horiz-adv-x="1289" d="M197 -395v1974h197v-697q121 228 363 228q196 0 308.5 -143t112.5 -391q0 -270 -127.5 -435.5t-335.5 -165.5q-193 0 -321 148v-518h-197zM394 259q152 -136 290 -136q136 0 210 113.5t74 319.5q0 382 -252 382q-165 0 -322 -179v-500z" />
<glyph unicode="&#xff;" horiz-adv-x="1070" d="M16 1086h213l311 -818l332 818h186l-593 -1481h-205l176 395zM266 1283v173h173v-173h-173zM661 1283v173h173v-173h-173z" />
<glyph unicode="&#x2000;" horiz-adv-x="968" />
<glyph unicode="&#x2001;" horiz-adv-x="1936" />
<glyph unicode="&#x2002;" horiz-adv-x="968" />
<glyph unicode="&#x2003;" horiz-adv-x="1936" />
<glyph unicode="&#x2004;" horiz-adv-x="645" />
<glyph unicode="&#x2005;" horiz-adv-x="484" />
<glyph unicode="&#x2006;" horiz-adv-x="322" />
<glyph unicode="&#x2007;" horiz-adv-x="322" />
<glyph unicode="&#x2008;" horiz-adv-x="242" />
<glyph unicode="&#x2009;" horiz-adv-x="387" />
<glyph unicode="&#x200a;" horiz-adv-x="107" />
<glyph unicode="&#x2010;" horiz-adv-x="1111" d="M148 518v148h814v-148h-814z" />
<glyph unicode="&#x2011;" horiz-adv-x="1111" d="M148 518v148h814v-148h-814z" />
<glyph unicode="&#x2012;" horiz-adv-x="1111" d="M148 518v148h814v-148h-814z" />
<glyph unicode="&#x202f;" horiz-adv-x="387" />
<glyph unicode="&#x205f;" horiz-adv-x="484" />
<glyph unicode="&#xe000;" horiz-adv-x="1085" d="M0 0v1085h1085v-1085h-1085z" />
</font>
</defs>
</svg>
