<?xml version="1.0" standalone="no"?>
<!DOCTYPE svg PUBLIC "-//W3C//DTD SVG 1.1//EN" "http://www.w3.org/Graphics/SVG/1.1/DTD/svg11.dtd" >
<svg xmlns="http://www.w3.org/2000/svg">
<metadata></metadata>
<defs>
<font id="LucidaGrandeBold" horiz-adv-x="1308" >
<font-face units-per-em="2048" ascent="1638" descent="-410" />
<missing-glyph horiz-adv-x="653" />
<glyph horiz-adv-x="0" />
<glyph horiz-adv-x="2048" />
<glyph unicode=" "  horiz-adv-x="653" />
<glyph unicode="&#x09;" horiz-adv-x="653" />
<glyph unicode="&#xa0;" horiz-adv-x="653" />
<glyph unicode="!" horiz-adv-x="642" d="M173 0v247h296v-247h-296zM173 1184v296h296v-296l-49 -765h-198z" />
<glyph unicode="&#x22;" horiz-adv-x="925" d="M99 1579h296l-62 -592h-185zM543 1579h296l-61 -592h-186z" />
<glyph unicode="#" d="M18 426l29 148h282l83 333h-298l29 148h306l107 425h152l-106 -425h262l106 425h153l-106 -425h273l-29 -148h-281l-84 -333h299l-30 -148h-306l-106 -426h-153l107 426h-263l-106 -426h-153l107 426h-274zM481 574h263l83 333h-262z" />
<glyph unicode="$" d="M181 78v218q223 -101 405 -111v475l-51 35q-184 124 -248 209.5t-64 207.5q0 149 97.5 248t265.5 119v162h161v-162q157 -8 318 -63v-201q-164 77 -318 91v-448l45 -30q189 -121 255.5 -207t66.5 -210q0 -162 -98.5 -271.5t-268.5 -136.5v-163h-161v164q-167 0 -405 74z M479 1134q0 -104 138 -192v356q-138 -46 -138 -164zM716 197q143 45 143 176q0 100 -143 202v-378z" />
<glyph unicode="%" horiz-adv-x="1604" d="M25 1110q0 173 94 271.5t258 98.5q163 0 257 -98.5t94 -270.5q0 -174 -94 -272.5t-261 -98.5q-161 0 -254.5 99.5t-93.5 270.5zM120 -37l1164 1554h200l-1163 -1554h-201zM247 1110q0 -222 128 -222q131 0 131 223q0 221 -129 221q-130 0 -130 -222zM876 370 q0 173 94 271.5t258 98.5t257.5 -98.5t93.5 -270.5q0 -175 -94 -273t-261 -98q-161 0 -254.5 99.5t-93.5 270.5zM1098 370q0 -222 128 -222q131 0 131 223q0 221 -129 221q-130 0 -130 -222z" />
<glyph unicode="&#x26;" horiz-adv-x="1525" d="M68 437q0 306 369 458q-106 186 -106 304q0 135 117.5 227t291.5 92q167 0 275 -88.5t108 -225.5q0 -213 -327 -365q127 -235 300 -444q101 146 101 407v23h249q0 -327 -236 -580q98 -127 207 -245h-348l-66 79q-175 -116 -385 -116q-239 0 -394.5 134t-155.5 340z M355 491q0 -141 91.5 -239t223.5 -98q116 0 215 70q-165 209 -311 457l-36 61q-183 -83 -183 -251zM612 1203q0 -87 91 -226q173 92 173 221q0 134 -132 134t-132 -129z" />
<glyph unicode="'" horiz-adv-x="506" d="M99 1579h321l-74 -617h-185z" />
<glyph unicode="(" horiz-adv-x="759" d="M123 642q0 299 144.5 555t392.5 394v-191q-266 -268 -266 -758q0 -491 266 -759v-191q-243 131 -390 391t-147 559z" />
<glyph unicode=")" horiz-adv-x="759" d="M99 -117q265 268 265 756q0 493 -265 761v191q243 -130 390 -390.5t147 -559.5q0 -298 -145 -554.5t-392 -394.5v191z" />
<glyph unicode="*" horiz-adv-x="955" d="M86 1118l67 205l256 -142q-33 -36 -33 -79q0 -7 1 -20zM169 863l214 201q28 -51 85 -62l-125 -266zM369 1480h216l-55 -288q-27 13 -53 13t-52 -13zM487 1002q56 11 85 62l214 -201l-175 -127zM545 1181l257 142l66 -205l-291 -36q2 13 2 20q0 43 -34 79z" />
<glyph unicode="+" horiz-adv-x="1629" d="M222 506v173h506v505h173v-505h505v-173h-505v-506h-173v506h-506z" />
<glyph unicode="," horiz-adv-x="506" d="M93 0v321h321v-249q0 -393 -321 -393v111q56 0 89.5 49t33.5 129v32h-123z" />
<glyph unicode="-" horiz-adv-x="1185" d="M148 543v197h888v-197h-888z" />
<glyph unicode="." horiz-adv-x="506" d="M93 0v321h321v-321h-321z" />
<glyph unicode="/" horiz-adv-x="1158" d="M222 -296l533 1776h180l-533 -1776h-180z" />
<glyph unicode="0" d="M80 740q0 349 158 563t416 214q256 0 414.5 -213.5t158.5 -559.5q0 -355 -158.5 -568t-421.5 -213q-252 0 -409.5 216t-157.5 561zM395 741q0 -593 255 -593q263 0 263 592t-259 592t-259 -591z" />
<glyph unicode="1" d="M266 0v173h296v1092l-296 -74v178l593 148v-1344h296v-173h-889z" />
<glyph unicode="2" d="M126 0v234l16 22q119 159 244 268l121 107q299 264 299 463q0 109 -70 170.5t-194 61.5q-163 0 -378 -110v217q226 84 437 84q236 0 378 -111.5t142 -298.5q0 -129 -69 -235t-243 -246l-100 -80q-209 -168 -248 -312h654v-234h-989z" />
<glyph unicode="3" d="M180 11v222q220 -85 363 -85q133 0 213.5 68t80.5 181q0 293 -429 293h-91v177l77 1q205 0 303.5 64.5t98.5 198.5q0 201 -248 201q-163 0 -348 -83v202q195 67 411 67q229 0 358.5 -94t129.5 -260q0 -262 -327 -370q374 -86 374 -400q0 -199 -150 -315t-408 -116 q-219 0 -408 48z" />
<glyph unicode="4" d="M74 395v222l679 863h271v-863h173v-222h-173v-395h-259v395h-691zM311 617h460v580z" />
<glyph unicode="5" d="M233 6v215q189 -73 315 -73q127 0 201.5 75.5t74.5 204.5q0 153 -118.5 235.5t-338.5 82.5q-54 0 -108 -9v743h850v-234h-634l-15 -319q320 0 499.5 -131t179.5 -366q0 -217 -157 -342t-430 -125q-116 0 -319 43z" />
<glyph unicode="6" d="M81 706q0 442 243 669q153 143 429 143q150 0 372 -54v-216q-202 85 -362 85q-178 0 -276 -144t-98 -404q139 168 356 168q198 0 328 -130.5t130 -329.5q0 -233 -150 -381.5t-386 -148.5q-276 0 -431 196.5t-155 546.5zM402 493q0 -155 73 -250t191 -95q110 0 175.5 80.5 t65.5 215.5q0 151 -66.5 239t-180.5 88q-109 0 -183.5 -80t-74.5 -198z" />
<glyph unicode="7" d="M222 1240v240h1012v-240q-291 -367 -456 -696.5t-165 -543.5h-328q21 167 82.5 293t276.5 440l348 507h-770z" />
<glyph unicode="8" d="M121 363q0 261 296 430q-214 141 -214 340q0 172 135 278.5t354 106.5q206 0 329.5 -91t123.5 -243q0 -196 -250 -371q316 -165 316 -415q0 -195 -154 -315t-404 -120q-239 0 -385.5 110t-146.5 290zM402 411q0 -116 80.5 -191t204.5 -75q109 0 182.5 59t73.5 147 q0 76 -49.5 130t-192.5 135l-138 78q-161 -134 -161 -283zM459 1169q0 -72 57 -126.5t225 -145.5q148 115 148 246q0 86 -61 137.5t-161 51.5q-93 0 -150.5 -45t-57.5 -118z" />
<glyph unicode="9" d="M109 989q0 231 150.5 379.5t384.5 148.5q274 0 429.5 -195t155.5 -538q0 -439 -247 -672q-159 -149 -441 -149q-137 0 -354 48v214q189 -77 353 -77q175 0 276.5 145.5t101.5 396.5q-141 -169 -348 -169q-195 0 -328 135t-133 333zM405 1035q0 -154 66.5 -243t180.5 -89 q108 0 182 81t74 199q0 157 -72.5 253t-190.5 96q-110 0 -175 -80t-65 -217z" />
<glyph unicode=":" horiz-adv-x="506" d="M105 0v296h296v-296h-296zM105 802v296h296v-296h-296z" />
<glyph unicode=";" horiz-adv-x="506" d="M105 0v296h296v-223q0 -182 -75 -281.5t-221 -112.5v111q111 32 111 179v31h-111zM105 802v296h296v-296h-296z" />
<glyph unicode="&#x3c;" horiz-adv-x="1629" d="M222 592l1184 592v-193l-796 -398v-2l796 -398v-193z" />
<glyph unicode="=" horiz-adv-x="1629" d="M222 309v172h1184v-172h-1184zM222 703v173h1184v-173h-1184z" />
<glyph unicode="&#x3e;" horiz-adv-x="1629" d="M222 0v193l796 398v2l-796 398v193l1184 -592z" />
<glyph unicode="?" horiz-adv-x="1018" d="M62 1231v226q199 60 389 60q237 0 374.5 -91t137.5 -248q0 -144 -165 -300l-67 -64q-94 -89 -124.5 -150.5t-30.5 -159.5v-85h-297v28q0 161 148 325l71 78q144 159 144 284q0 186 -234 186q-151 0 -346 -89zM279 0v247h297v-247h-297z" />
<glyph unicode="@" horiz-adv-x="1729" d="M60 578q0 337 244 617q131 151 314.5 236.5t375.5 85.5q281 0 469 -178.5t188 -446.5q0 -252 -153 -424t-377 -172q-163 0 -163 109q0 47 56 230h-21q-78 -149 -190 -244t-211 -95q-179 0 -179 231q0 237 161.5 441t349.5 204q24 0 65 -6q60 -8 131 -8h134l-111 -558 q-11 -52 -11 -97q0 -68 77 -68q119 0 216 138.5t97 308.5q0 215 -152.5 360.5t-376.5 145.5q-346 0 -586 -270q-218 -245 -218 -537q0 -214 146.5 -351.5t373.5 -137.5q155 0 309 72l43 -119q-174 -82 -349 -82q-285 0 -468.5 173.5t-183.5 441.5zM592 573q0 -123 71 -123 q53 0 157 111.5t191 262.5l38 186q-80 37 -142 37q-116 0 -188 -91q-127 -162 -127 -383z" />
<glyph unicode="A" horiz-adv-x="1508" d="M23 0l576 1480h308l576 -1480h-316l-154 395h-612l-154 -395h-224zM477 592h460l-230 590z" />
<glyph unicode="B" horiz-adv-x="1290" d="M185 0v1480h503q223 0 339.5 -84t116.5 -245q0 -267 -355 -378q415 -101 415 -407q0 -177 -121.5 -271.5t-348.5 -94.5h-549zM481 210h60q194 0 267.5 41.5t73.5 151.5q0 113 -98.5 188t-248.5 75h-54v-456zM481 864h67q130 0 206.5 64t76.5 174q0 102 -61.5 138.5 t-232.5 36.5h-56v-413z" />
<glyph unicode="C" horiz-adv-x="1459" d="M93 740q0 374 204.5 575.5t583.5 201.5q242 0 481 -57v-241q-271 95 -454 95q-234 0 -361 -148.5t-127 -421.5q0 -268 136.5 -418t379.5 -150q218 0 440 110v-227q-215 -96 -513 -96q-364 0 -567 205t-203 572z" />
<glyph unicode="D" horiz-adv-x="1624" d="M185 0v1480h637q344 0 527 -182.5t183 -526.5q0 -366 -194 -568.5t-543 -202.5h-610zM493 210h230q268 0 375 151q107 150 107 392q0 212 -96 353q-66 97 -159 134t-271 37h-186v-1067z" />
<glyph unicode="E" horiz-adv-x="1230" d="M185 0v1480h925v-203h-617v-413h506v-204h-506v-450h664v-210h-972z" />
<glyph unicode="F" horiz-adv-x="1176" d="M185 0v1480h931v-203h-623v-450h512v-204h-512v-623h-308z" />
<glyph unicode="G" horiz-adv-x="1527" d="M93 742q0 373 205.5 574t585.5 201q243 0 482 -57v-241q-277 95 -455 95q-235 0 -363 -150t-128 -425q0 -266 137 -417.5t378 -151.5q53 0 124 15v487h308v-637q-278 -72 -480 -72q-383 0 -588.5 201.5t-205.5 577.5z" />
<glyph unicode="H" horiz-adv-x="1598" d="M185 0v1480h308v-601h612v601h308v-1480h-308v675h-612v-675h-308z" />
<glyph unicode="I" horiz-adv-x="679" d="M185 0v1480h308v-1480h-308z" />
<glyph unicode="J" horiz-adv-x="857" d="M-70 -40q120 -47 247 -47q106 0 146 59t40 212v1296h309v-1263q0 -273 -111 -393t-363 -120q-126 0 -266 36z" />
<glyph unicode="K" horiz-adv-x="1454" d="M185 0v1480h296v-718l566 718h256l-513 -664l637 -816h-385l-561 728v-728h-296z" />
<glyph unicode="L" horiz-adv-x="1191" d="M185 0v1480h308v-1270h667v-210h-975z" />
<glyph unicode="M" horiz-adv-x="1859" d="M185 0v1480h408l356 -1041l367 1041h358v-1480h-284v1117l-361 -1018h-248l-354 1033v-1132h-242z" />
<glyph unicode="N" horiz-adv-x="1574" d="M185 0v1480h271l686 -1011v1011h247v-1480h-276l-681 1011v-1011h-247z" />
<glyph unicode="O" horiz-adv-x="1686" d="M93 740q0 357 203 567t548 210q343 0 546.5 -210t203.5 -564q0 -362 -203.5 -571t-556.5 -209q-337 0 -539 212t-202 565zM420 741q0 -259 115 -416.5t303 -157.5q198 0 313.5 155.5t115.5 421.5q0 258 -116 414t-307 156q-193 0 -308.5 -156t-115.5 -417z" />
<glyph unicode="P" horiz-adv-x="1256" d="M185 0v1480h516q270 0 385.5 -90.5t115.5 -302.5q0 -240 -154.5 -373.5t-432.5 -133.5h-128v-580h-302zM487 783h60q158 0 249.5 73.5t91.5 199.5q0 221 -281 221h-120v-494z" />
<glyph unicode="Q" horiz-adv-x="1687" d="M93 740q0 357 203 567t548 210t547.5 -210.5t202.5 -569.5q0 -504 -395 -703q291 -100 590 -132l-200 -198q-398 105 -648 264q-73 -5 -108 -5q-336 0 -538 212t-202 565zM420 741q0 -259 115 -416.5t304 -157.5q197 0 312.5 155t115.5 421q0 259 -115.5 415t-307.5 156 q-193 0 -308.5 -156t-115.5 -417z" />
<glyph unicode="R" horiz-adv-x="1413" d="M185 0v1480h554q220 0 335.5 -93.5t115.5 -273.5q0 -137 -76.5 -249.5t-210.5 -172.5l484 -691h-375l-367 605h-170v-605h-290zM475 808h71q335 0 335 271q0 198 -299 198h-107v-469z" />
<glyph unicode="S" horiz-adv-x="1170" d="M99 1112q0 183 134.5 294t355.5 111q177 0 399 -51v-237q-227 85 -359 85q-102 0 -163.5 -45.5t-61.5 -119.5q0 -61 43 -107t162 -113l106 -59q214 -120 295 -221t81 -246q0 -206 -153 -323t-422 -117q-178 0 -414 50v254q239 -100 409 -100q119 0 187.5 53t68.5 144 q0 72 -43 121.5t-163 117.5l-99 55q-199 112 -281 214.5t-82 239.5z" />
<glyph unicode="T" horiz-adv-x="1413" d="M22 1277v203h1369v-203h-530v-1277h-309v1277h-530z" />
<glyph unicode="U" horiz-adv-x="1508" d="M173 574v906h308v-907q0 -215 71 -310.5t229 -95.5q151 0 218.5 91t67.5 293v929h268v-909q0 -205 -39 -312.5t-142 -186.5q-141 -109 -379 -109q-255 0 -410 116q-107 80 -149.5 189.5t-42.5 305.5z" />
<glyph unicode="V" horiz-adv-x="1431" d="M25 1480h329l424 -1145l410 1145h222l-529 -1480h-309z" />
<glyph unicode="W" horiz-adv-x="1851" d="M21 1480h291l270 -1083l255 1083h257l242 -1077l284 1077h213l-388 -1480h-294l-228 1015l-239 -1015h-294z" />
<glyph unicode="X" horiz-adv-x="1366" d="M49 0l474 729l-453 751h359l301 -498l326 498h249l-454 -698l470 -782h-358l-321 529l-344 -529h-249z" />
<glyph unicode="Y" horiz-adv-x="1406" d="M40 1480h340l361 -625l377 625h244l-517 -858v-622h-308v620z" />
<glyph unicode="Z" horiz-adv-x="1320" d="M106 0v210l736 1067h-694v203h1052v-203l-736 -1067h736v-210h-1094z" />
<glyph unicode="[" horiz-adv-x="759" d="M197 -296v1875h463v-173h-216v-1529h216v-173h-463z" />
<glyph unicode="\" horiz-adv-x="1158" d="M222 1480h180l533 -1776h-180z" />
<glyph unicode="]" horiz-adv-x="759" d="M99 -123h216v1529h-216v173h463v-1875h-463v173z" />
<glyph unicode="^" horiz-adv-x="1357" d="M86 395l592 1184l592 -1184h-193l-398 796h-2l-398 -796h-193z" />
<glyph unicode="_" horiz-adv-x="1024" d="M0 0h1024v-173h-1024v173z" />
<glyph unicode="`" d="M355 1604h271l241 -321h-191z" />
<glyph unicode="a" horiz-adv-x="1204" d="M82 291q0 182 145.5 280.5t416.5 98.5h79v100q0 171 -195 171q-173 0 -350 -98v204q201 76 398 76q431 0 431 -343v-486q0 -129 79 -129q18 0 50 11v-173q-94 -28 -166 -28q-182 0 -234 143h-13q-148 -143 -317 -143q-144 0 -234 88t-90 228zM366 320q0 -61 41.5 -102.5 t102.5 -41.5q104 0 213 101v223h-70q-134 0 -210.5 -48t-76.5 -132z" />
<glyph unicode="b" horiz-adv-x="1357" d="M185 0v1579h296v-688q114 232 359 232q198 0 311.5 -145t113.5 -399q0 -275 -128 -439.5t-342 -164.5q-184 0 -314 136l-55 -111h-241zM481 287q108 -120 230 -120q109 0 174 105.5t65 281.5q0 337 -217 337q-131 0 -252 -169v-435z" />
<glyph unicode="c" horiz-adv-x="1090" d="M86 550q0 269 157 421t434 152q134 0 309 -43v-214q-182 59 -291 59q-133 0 -214 -102t-81 -271q0 -173 87.5 -277t233.5 -104q133 0 274 58v-205q-184 -49 -341 -49q-263 0 -415.5 154.5t-152.5 420.5z" />
<glyph unicode="d" horiz-adv-x="1357" d="M93 519q0 276 127.5 440t342.5 164q172 0 313 -136v592h297v-1579h-297v207q-114 -232 -359 -232q-198 0 -311 145t-113 399zM408 544q0 -337 216 -337q132 0 252 169v435q-107 120 -229 120q-109 0 -174 -105t-65 -282z" />
<glyph unicode="e" horiz-adv-x="1200" d="M86 557q0 255 145.5 410.5t384.5 155.5q241 0 352 -152t111 -481h-681q30 -314 345 -314q149 0 336 69v-208q-211 -62 -400 -62q-275 0 -434 156t-159 426zM394 657h394q0 281 -181 281q-184 0 -213 -281z" />
<glyph unicode="f" horiz-adv-x="849" d="M65 913v185h151v79q0 427 405 427q131 0 270 -38v-200q-126 53 -226 53q-84 0 -118.5 -52t-34.5 -179v-90h278v-185h-278v-913h-296v913h-151z" />
<glyph unicode="g" horiz-adv-x="1351" d="M93 543q0 263 129 421.5t343 158.5q168 0 311 -136l31 111h266v-838q0 -251 -30.5 -362t-118.5 -189q-148 -128 -417 -128q-191 0 -414 78l24 215q183 -84 349 -84q164 0 237 70t73 227v150q-108 -237 -357 -237q-196 0 -311 146.5t-115 396.5zM408 559q0 -322 207 -322 q143 0 261 172v405q-107 121 -224 121q-112 0 -178 -102t-66 -274z" />
<glyph unicode="h" horiz-adv-x="1345" d="M185 0v1579h296v-688q145 232 374 232q147 0 232 -93t85 -254v-776h-296v703q0 187 -124 187q-141 0 -271 -199v-691h-296z" />
<glyph unicode="i" horiz-adv-x="666" d="M185 0v1098h296v-1098h-296zM185 1283v247h296v-247h-296z" />
<glyph unicode="j" horiz-adv-x="682" d="M-179 -175q129 -59 221 -59q86 0 122.5 53.5t36.5 180.5v1098h296v-1078q0 -230 -102.5 -335t-327.5 -105q-100 0 -246 47v198zM201 1283v247h296v-247h-296z" />
<glyph unicode="k" horiz-adv-x="1296" d="M185 0v1579h296v-993h19l391 512h246l-361 -470l474 -628h-360l-390 549h-19v-549h-296z" />
<glyph unicode="l" horiz-adv-x="666" d="M185 0v1579h296v-1579h-296z" />
<glyph unicode="m" horiz-adv-x="1986" d="M185 0v1098h284v-207q130 232 370 232q124 0 204 -61t98 -171q154 232 372 232q301 0 301 -332v-791h-284v694q0 195 -130 195q-133 0 -259 -192v-697h-284v694q0 196 -131 196t-257 -193v-697h-284z" />
<glyph unicode="n" horiz-adv-x="1345" d="M185 0v1098h296v-207q145 232 374 232q147 0 232 -93t85 -254v-776h-296v703q0 187 -124 187q-141 0 -271 -199v-691h-296z" />
<glyph unicode="o" d="M86 549q0 266 152.5 420t414.5 154q263 0 415.5 -154t152.5 -418q0 -270 -153 -423t-422 -153q-257 0 -408.5 155.5t-151.5 418.5zM401 549q0 -179 67 -284t183 -105q120 0 187.5 103.5t67.5 287.5q0 179 -67.5 283t-185.5 104q-117 0 -184.5 -104t-67.5 -285z" />
<glyph unicode="p" horiz-adv-x="1357" d="M185 -395v1493h296v-207q114 232 359 232q198 0 311.5 -145t113.5 -399q0 -276 -128 -440t-343 -164q-173 0 -313 136v-506h-296zM481 287q108 -120 230 -120q109 0 174 105.5t65 281.5q0 337 -217 337q-131 0 -252 -169v-435z" />
<glyph unicode="q" horiz-adv-x="1357" d="M93 519q0 276 127.5 440t342.5 164q172 0 313 -136l37 111h260v-1493h-297v602q-114 -232 -359 -232q-198 0 -311 145t-113 399zM408 544q0 -337 216 -337q132 0 252 169v435q-107 120 -229 120q-109 0 -174 -105t-65 -282z" />
<glyph unicode="r" horiz-adv-x="931" d="M185 0v1098h296v-207q115 232 350 232q28 0 55 -6v-264q-63 23 -117 23q-177 0 -288 -179v-697h-296z" />
<glyph unicode="s" horiz-adv-x="1158" d="M156 35v217q220 -92 376 -92q182 0 182 124q0 80 -150 140l-100 40q-163 66 -233 142t-70 188q0 156 119 242.5t333 86.5q134 0 319 -39v-208q-178 62 -295 62q-184 0 -184 -114q0 -75 136 -127l86 -33q193 -73 268.5 -148t75.5 -193q0 -155 -128.5 -251.5t-334.5 -96.5 q-198 0 -400 60z" />
<glyph unicode="t" horiz-adv-x="830" d="M76 913v185h123v185l296 34v-219h235v-185h-235v-539q0 -202 165 -202q38 0 91 14v-180q-106 -31 -167 -31q-201 0 -293 86t-92 274v578h-123z" />
<glyph unicode="u" horiz-adv-x="1345" d="M173 322v776h296v-703q0 -187 125 -187q140 0 270 199v691h296v-1098h-296v207q-144 -232 -374 -232q-147 0 -232 93t-85 254z" />
<glyph unicode="v" horiz-adv-x="1215" d="M37 1098h312l307 -792l305 792h214l-423 -1098h-296z" />
<glyph unicode="w" horiz-adv-x="1767" d="M74 1098h275l216 -769l230 769h256l207 -773l233 773h206l-326 -1098h-284l-200 753l-224 -753h-284z" />
<glyph unicode="x" horiz-adv-x="1210" d="M68 0l377 551l-361 547h337l236 -348l226 348h240l-344 -539l369 -559h-337l-246 363l-252 -363h-245z" />
<glyph unicode="y" horiz-adv-x="1194" d="M31 1098h318l272 -734l323 734h225l-678 -1493h-302l249 395z" />
<glyph unicode="z" horiz-adv-x="1210" d="M123 0v197l614 716h-586v185h936v-185l-614 -716h626v-197h-976z" />
<glyph unicode="{" horiz-adv-x="759" d="M99 543v197h49q138 0 138 130q0 70 -19 143l-23 92q-22 89 -22 170q0 142 110 223t304 81v-173q-94 -6 -130 -33.5t-36 -94.5q0 -29 10 -90l15 -85q11 -69 11 -142q0 -205 -197 -319q197 -116 197 -320q0 -73 -11 -142l-15 -85q-10 -61 -10 -90q0 -67 36 -94.5t130 -33.5 v-173q-194 0 -304 81t-110 223q0 81 22 170l23 92q19 73 19 144q0 129 -138 129h-49z" />
<glyph unicode="|" horiz-adv-x="790" d="M308 -296v1875h173v-1875h-173z" />
<glyph unicode="}" horiz-adv-x="759" d="M99 -123q94 6 130 33.5t36 94.5q0 29 -10 90l-15 85q-11 69 -11 142q0 204 196 320q-196 114 -196 319q0 73 11 142l15 85q10 61 10 90q0 67 -36 94.5t-130 33.5v173q194 0 304 -81t110 -223q0 -81 -23 -170l-23 -92q-18 -73 -18 -144q0 -129 137 -129h50v-197h-50 q-137 0 -137 -130q0 -70 18 -143l23 -92q23 -89 23 -170q0 -142 -110.5 -223t-303.5 -81v173z" />
<glyph unicode="~" d="M111 419q0 172 73 270t202 98q83 0 242 -82l120 -63l98 -52q34 -16 70 -16q48 0 78 47t30 122v16h173q0 -174 -72 -272t-200 -98q-86 0 -255 87l-123 63l-93 49q-30 14 -60 14q-110 0 -110 -183h-173z" />
<glyph horiz-adv-x="506" d="M93 0v321h321v-249q0 -393 -321 -393v111q56 0 89.5 49t33.5 129v32h-123z" />
<glyph unicode="&#x201a;" horiz-adv-x="506" d="M93 0v321h321v-249q0 -393 -321 -393v111q56 0 89.5 49t33.5 129v32h-123z" />
<glyph horiz-adv-x="925" d="M93 0v296h296v-223q0 -182 -75 -281.5t-221 -112.5v111q111 32 111 179v31h-111zM537 0v296h296v-223q0 -182 -75 -281.5t-221 -112.5v111q111 32 111 179v31h-111z" />
<glyph unicode="&#x201e;" horiz-adv-x="925" d="M93 0v296h296v-223q0 -182 -75 -281.5t-221 -112.5v111q111 32 111 179v31h-111zM537 0v296h296v-223q0 -182 -75 -281.5t-221 -112.5v111q111 32 111 179v31h-111z" />
<glyph unicode="&#x85;" horiz-adv-x="2048" d="M181 0v321h321v-321h-321zM864 0v321h320v-321h-320zM1546 0v321h321v-321h-321z" />
<glyph unicode="&#x2026;" horiz-adv-x="2048" d="M181 0v321h321v-321h-321zM864 0v321h320v-321h-320zM1546 0v321h321v-321h-321z" />
<glyph d="M276 1283l241 321h273l241 -321h-179l-198 197h-2l-197 -197h-179z" />
<glyph unicode="&#x2c6;" d="M276 1283l241 321h273l241 -321h-179l-198 197h-2l-197 -197h-179z" />
<glyph horiz-adv-x="709" d="M86 549l416 444l139 -105l-262 -339l262 -339l-139 -105z" />
<glyph unicode="&#x2039;" horiz-adv-x="709" d="M86 549l416 444l139 -105l-262 -339l262 -339l-139 -105z" />
<glyph horiz-adv-x="2169" d="M93 740q0 354 202 565.5t540 211.5q147 0 289 -74v37h925v-203h-616v-413h505v-204h-505v-450h663v-210h-972v37q-151 -74 -295 -74q-333 0 -534.5 213t-201.5 564zM420 740q0 -257 115 -415t303 -158q152 0 219 99.5t67 327.5v293q0 227 -67.5 327t-220.5 100 q-186 0 -301 -158.5t-115 -415.5z" />
<glyph unicode="&#x152;" horiz-adv-x="2169" d="M93 740q0 354 202 565.5t540 211.5q147 0 289 -74v37h925v-203h-616v-413h505v-204h-505v-450h663v-210h-972v37q-151 -74 -295 -74q-333 0 -534.5 213t-201.5 564zM420 740q0 -257 115 -415t303 -158q152 0 219 99.5t67 327.5v293q0 227 -67.5 327t-220.5 100 q-186 0 -301 -158.5t-115 -415.5z" />
<glyph horiz-adv-x="506" d="M93 938v248q0 393 321 393v-111q-56 0 -90 -48.5t-34 -129.5v-32h124v-320h-321z" />
<glyph unicode="&#x2018;" horiz-adv-x="506" d="M93 938v248q0 393 321 393v-111q-56 0 -90 -48.5t-34 -129.5v-32h124v-320h-321z" />
<glyph horiz-adv-x="506" d="M93 938v111q56 0 89.5 48.5t33.5 129.5v31h-123v321h321v-248q0 -393 -321 -393z" />
<glyph unicode="&#x2019;" horiz-adv-x="506" d="M93 938v111q56 0 89.5 48.5t33.5 129.5v31h-123v321h321v-248q0 -393 -321 -393z" />
<glyph horiz-adv-x="925" d="M93 962v224q0 181 75 280.5t221 112.5v-111q-111 -31 -111 -178v-32h111v-296h-296zM537 962v224q0 181 75 280.5t221 112.5v-111q-111 -31 -111 -178v-32h111v-296h-296z" />
<glyph unicode="&#x201c;" horiz-adv-x="925" d="M93 962v224q0 181 75 280.5t221 112.5v-111q-111 -31 -111 -178v-32h111v-296h-296zM537 962v224q0 181 75 280.5t221 112.5v-111q-111 -31 -111 -178v-32h111v-296h-296z" />
<glyph horiz-adv-x="925" d="M93 962v111q111 32 111 179v31h-111v296h296v-223q0 -182 -75 -281.5t-221 -112.5zM537 962v111q111 32 111 179v31h-111v296h296v-223q0 -182 -74.5 -281.5t-221.5 -112.5z" />
<glyph unicode="&#x201d;" horiz-adv-x="925" d="M93 962v111q111 32 111 179v31h-111v296h296v-223q0 -182 -75 -281.5t-221 -112.5zM537 962v111q111 32 111 179v31h-111v296h296v-223q0 -182 -74.5 -281.5t-221.5 -112.5z" />
<glyph horiz-adv-x="1283" d="M222 597q0 170 124 292.5t296 122.5q174 0 296.5 -123t122.5 -297q0 -173 -122.5 -296t-295.5 -123q-177 0 -299 123t-122 301z" />
<glyph unicode="&#x2022;" horiz-adv-x="1283" d="M222 597q0 170 124 292.5t296 122.5q174 0 296.5 -123t122.5 -297q0 -173 -122.5 -296t-295.5 -123q-177 0 -299 123t-122 301z" />
<glyph horiz-adv-x="1024" d="M86 537v160h851v-160h-851z" />
<glyph unicode="&#x2013;" horiz-adv-x="1024" d="M86 537v160h851v-160h-851z" />
<glyph horiz-adv-x="2048" d="M80 537v123h1888v-123h-1888z" />
<glyph unicode="&#x2014;" horiz-adv-x="2048" d="M80 537v123h1888v-123h-1888z" />
<glyph d="M302 1283q0 321 201 321q65 0 127 -43l38 -26l31 -22q64 -45 91 -45q67 0 67 136h148q0 -321 -201 -321q-65 0 -126 43l-39 26q-24 17 -31 22q-61 45 -91 45q-67 0 -67 -136h-148z" />
<glyph unicode="&#x2dc;" d="M302 1283q0 321 201 321q65 0 127 -43l38 -26l31 -22q64 -45 91 -45q67 0 67 136h148q0 -321 -201 -321q-65 0 -126 43l-39 26q-24 17 -31 22q-61 45 -91 45q-67 0 -67 -136h-148z" />
<glyph horiz-adv-x="2048" d="M197 1357v123h734v-123h-268v-617h-198v617h-268zM1061 740v740h254l156 -472l159 472h220v-740h-179v518l-160 -468h-144l-158 481v-531h-148z" />
<glyph unicode="&#x2122;" horiz-adv-x="2048" d="M197 1357v123h734v-123h-268v-617h-198v617h-268zM1061 740v740h254l156 -472l159 472h220v-740h-179v518l-160 -468h-144l-158 481v-531h-148z" />
<glyph horiz-adv-x="709" d="M68 210l262 339l-262 339l139 105l416 -444l-416 -444z" />
<glyph unicode="&#x203a;" horiz-adv-x="709" d="M68 210l262 339l-262 339l139 105l416 -444l-416 -444z" />
<glyph horiz-adv-x="1966" d="M93 549q0 258 150 416t396 158q225 0 389 -176q142 176 369 176q231 0 340 -154t109 -479h-682q31 -314 346 -314q149 0 336 69v-208q-214 -62 -419 -62q-236 0 -409 163q-99 -98 -173.5 -130.5t-199.5 -32.5q-254 0 -403 155t-149 419zM407 549q0 -178 67 -283.5 t180 -105.5q216 0 216 389t-213 389q-115 0 -182.5 -105t-67.5 -284zM1161 657h393q0 284 -180 284q-184 0 -213 -284z" />
<glyph unicode="&#x153;" horiz-adv-x="1966" d="M93 549q0 258 150 416t396 158q225 0 389 -176q142 176 369 176q231 0 340 -154t109 -479h-682q31 -314 346 -314q149 0 336 69v-208q-214 -62 -419 -62q-236 0 -409 163q-99 -98 -173.5 -130.5t-199.5 -32.5q-254 0 -403 155t-149 419zM407 549q0 -178 67 -283.5 t180 -105.5q216 0 216 389t-213 389q-115 0 -182.5 -105t-67.5 -284zM1161 657h393q0 284 -180 284q-184 0 -213 -284z" />
<glyph horiz-adv-x="1406" d="M40 1480h340l361 -625l377 625h244l-517 -858v-622h-308v620zM405 1605v222h222v-222h-222zM824 1605v222h222v-222h-222z" />
<glyph unicode="&#x178;" horiz-adv-x="1406" d="M40 1480h340l361 -625l377 625h244l-517 -858v-622h-308v620zM405 1605v222h222v-222h-222zM824 1605v222h222v-222h-222z" />
<glyph unicode="&#xa1;" horiz-adv-x="642" d="M173 -86l49 765h198l49 -765v-296h-296v296zM173 851v247h296v-247h-296z" />
<glyph unicode="&#xa2;" d="M147 752q0 259 136.5 406t396.5 169v153h160v-155q130 -9 252 -40v-216q-138 58 -252 65v-760q128 8 252 55v-202q-126 -38 -252 -47v-180h-160v176q-250 14 -391.5 167t-141.5 409zM464 767q0 -298 216 -376v740q-216 -65 -216 -364z" />
<glyph unicode="&#xa3;" d="M225 0v234q110 26 153.5 88.5t43.5 193.5v181h-163v185h163v170q0 466 449 466q120 0 267 -24v-203q-120 41 -231 41q-189 0 -189 -214v-236h195v-185h-195q0 -197 -41 -284.5t-175 -178.5h651v-234h-928z" />
<glyph unicode="&#xa4;" d="M87 295l198 199q-75 118 -75 246q0 129 75 247l-198 198l122 122l198 -198q120 75 247 75q126 0 246 -75l199 198l122 -122l-199 -198q76 -118 76 -247q0 -128 -76 -246l198 -199l-122 -122l-198 199q-120 -76 -246 -76q-127 0 -247 76l-198 -199zM431 739 q0 -91 65.5 -156t157.5 -65q91 0 156.5 65t65.5 157q0 91 -65 156.5t-155 65.5q-94 0 -159.5 -65t-65.5 -158z" />
<glyph unicode="&#xa5;" d="M42 1480h332l332 -544l353 544h220l-475 -734h250v-148h-259v-148h259v-148h-259v-302h-297v302h-259v148h259v148h-259v148h250z" />
<glyph unicode="&#xa6;" horiz-adv-x="790" d="M308 -296v740h173v-740h-173zM308 839v740h173v-740h-173z" />
<glyph unicode="&#xa7;" d="M187 1153q0 165 136.5 265t360.5 100q182 0 388 -41v-205q-198 60 -363 60q-113 0 -180 -37t-67 -99q0 -84 159 -149l134 -55q206 -84 287.5 -169.5t81.5 -218.5q0 -148 -145 -306q161 -104 161 -276q0 -173 -142.5 -264.5t-411.5 -91.5q-164 0 -389 56v219 q253 -89 419 -89q250 0 250 140q0 52 -35 83.5t-148 80.5l-154 66q-182 79 -259 163.5t-77 206.5q0 155 150 304q-156 100 -156 257zM424 678q0 -117 209 -210l208 -93q58 79 58 146q0 65 -41.5 106t-160.5 94l-215 97q-58 -73 -58 -140z" />
<glyph unicode="&#xa8;" d="M333 1283v222h222v-222h-222zM752 1283v222h222v-222h-222z" />
<glyph unicode="&#xa9;" horiz-adv-x="1721" d="M83 740q0 322 228 549.5t549 227.5t549 -227.5t228 -547.5q0 -326 -228.5 -552.5t-557.5 -226.5q-315 0 -541.5 229.5t-226.5 547.5zM212 740q0 -264 189.5 -456t449.5 -192q317 0 504 233q153 190 153 416q0 224 -153 414q-187 233 -495 233t-495 -233 q-153 -190 -153 -415zM439 742q0 200 122 318t328 118q132 0 286 -37v-132q-145 58 -267 58q-126 0 -204.5 -90.5t-78.5 -236.5q0 -144 86 -232.5t226 -88.5q138 0 238 53v-133q-150 -43 -278 -43q-205 0 -331.5 123t-126.5 323z" />
<glyph unicode="&#xaa;" horiz-adv-x="987" d="M185 1022q0 230 344 230h48v47q0 94 -118 94q-112 0 -215 -60v141q120 44 248 44q294 0 294 -208v-290q0 -59 40 -59q11 0 24 3v-126q-64 -15 -111 -15q-119 0 -160 77h-13q-76 -77 -173 -77q-91 0 -149.5 56t-58.5 143zM394 1039q0 -77 75 -77q55 0 108 57v113h-46 q-137 0 -137 -93z" />
<glyph unicode="&#xab;" horiz-adv-x="1166" d="M86 549l416 444l139 -108l-262 -336l262 -339l-139 -105zM542 549l417 444l139 -105l-263 -339l263 -339l-139 -105z" />
<glyph unicode="&#xac;" horiz-adv-x="1629" d="M222 716v172h1184v-592h-172v420h-1012z" />
<glyph unicode="&#xad;" horiz-adv-x="1186" d="M148 543v197h888v-197h-888z" />
<glyph unicode="&#xae;" horiz-adv-x="1721" d="M83 740q0 322 228 549.5t549 227.5t549 -227.5t228 -547.5q0 -326 -228.5 -552.5t-557.5 -226.5q-315 0 -541.5 229.5t-226.5 547.5zM212 740q0 -264 189.5 -456t449.5 -192q317 0 504 233q153 190 153 416q0 224 -153 414q-187 233 -495 233t-495 -233 q-153 -190 -153 -415zM551 322v840h337q282 0 282 -208q0 -167 -179 -240l247 -392h-219l-189 343h-107v-343h-172zM723 780h45q217 0 217 154q0 112 -195 112h-67v-266z" />
<glyph unicode="&#xb0;" horiz-adv-x="641" d="M99 1296q0 93 64.5 157t157.5 64t157.5 -64t64.5 -157q0 -94 -65 -158.5t-160 -64.5q-90 0 -154.5 65.5t-64.5 157.5zM198 1295q0 -49 36.5 -86t85.5 -37q50 0 87 36.5t37 86.5t-37 87t-86 37q-50 0 -86.5 -37t-36.5 -87z" />
<glyph unicode="&#xb1;" horiz-adv-x="1629" d="M222 0v173h1184v-173h-1184zM222 654v173h506v357h173v-357h505v-173h-505v-358h-173v358h-506z" />
<glyph unicode="&#xb2;" horiz-adv-x="987" d="M171 607v169l9 9l21 23q29 32 82 75l80 66q217 178 217 310q0 124 -153 124q-99 0 -233 -62v150q149 46 284 46q155 0 246.5 -66.5t91.5 -179.5q0 -137 -193 -287l-70 -55q-117 -90 -137 -153h398v-169h-643z" />
<glyph unicode="&#xb3;" horiz-adv-x="987" d="M195 614v150q135 -52 235 -52q162 0 162 128q0 168 -255 168h-60v127h46q128 0 185 34.5t57 111.5q0 109 -138 109q-107 0 -220 -50v134q146 43 267 43q320 0 320 -215q0 -160 -205 -222q232 -53 232 -242q0 -119 -96.5 -186t-269.5 -67q-127 0 -260 29z" />
<glyph unicode="&#xb4;" d="M463 1283l241 321h271l-321 -321h-191z" />
<glyph unicode="&#xb5;" horiz-adv-x="1357" d="M179 -296v1394h296v-703q0 -187 125 -187q140 0 270 199v691h296v-1098h-296v210q-68 -97 -170 -153.5t-209 -56.5h-16v-296h-296z" />
<glyph unicode="&#xb6;" d="M148 1150q0 177 96 253.5t317 76.5h451v-1776h-161v1641h-148v-1641h-160v1036q-395 53 -395 410z" />
<glyph unicode="&#xb8;" d="M476 -311q70 -15 117 -15q122 0 122 60q0 84 -195 84h-20l121 182h136l-76 -113q232 -25 232 -156q0 -69 -72 -116t-177 -47q-82 0 -188 29v92z" />
<glyph unicode="&#xb9;" horiz-adv-x="987" d="M197 615v130h222v583l-222 -55v133l444 111v-772h221v-130h-665z" />
<glyph unicode="&#xba;" horiz-adv-x="987" d="M131 1170q0 162 97 254.5t266 92.5q168 0 265 -92.5t97 -253.5q0 -164 -97 -256t-270 -92q-165 0 -261.5 93.5t-96.5 253.5zM367 1170q0 -97 34.5 -158t90.5 -61q128 0 128 221q0 97 -35 157.5t-91 60.5q-57 0 -92 -60.5t-35 -159.5z" />
<glyph unicode="&#xbb;" horiz-adv-x="1166" d="M68 210l262 339l-262 339l139 105l416 -444l-416 -444zM524 213l263 336l-263 339l139 105l417 -444l-417 -444z" />
<glyph unicode="&#xbc;" horiz-adv-x="1946" d="M101 1273v133l444 111v-902h-222v713zM284 -37l1108 1554h172l-1107 -1554h-173zM1041 228v166l413 496h201v-496h93v-166h-93v-226h-194v226h-420zM1208 394h254v304z" />
<glyph unicode="&#xbd;" horiz-adv-x="1946" d="M87 1273v133l444 111v-902h-222v713zM202 -37l1108 1554h172l-1107 -1554h-173zM1103 2v169l9 9l21 23q29 32 82 75l80 66q217 178 217 310q0 124 -153 124q-99 0 -233 -62v150q149 46 284 46q155 0 246.5 -66.5t91.5 -179.5q0 -137 -193 -287l-70 -55 q-117 -90 -137 -153h398v-169h-643z" />
<glyph unicode="&#xbe;" horiz-adv-x="1946" d="M161 614v150q135 -52 235 -52q162 0 162 128q0 168 -255 168h-60v127h46q128 0 185 34.5t57 111.5q0 109 -138 109q-107 0 -220 -50v134q146 43 267 43q320 0 320 -215q0 -160 -205 -222q232 -53 232 -242q0 -119 -96.5 -186t-269.5 -67q-127 0 -260 29zM383 -37 l1108 1554h172l-1107 -1554h-173zM1078 228v166l413 496h201v-496h93v-166h-93v-226h-194v226h-420zM1245 394h254v304z" />
<glyph unicode="&#xbf;" horiz-adv-x="1018" d="M56 -80q0 144 164 300l68 64q93 89 124 150.5t31 159.5v85h296v-28q0 -162 -148 -325l-70 -78q-144 -159 -144 -284q0 -186 234 -186q151 0 346 89v-226q-200 -60 -390 -60q-237 0 -374 91t-137 248zM443 851v247h296v-247h-296z" />
<glyph unicode="&#xc0;" horiz-adv-x="1508" d="M23 0l576 1480h308l576 -1480h-316l-154 395h-612l-154 -395h-224zM433 1926h271l241 -321h-191zM477 592h460l-230 590z" />
<glyph unicode="&#xc1;" horiz-adv-x="1508" d="M23 0l576 1480h308l576 -1480h-316l-154 395h-612l-154 -395h-224zM477 592h460l-230 590zM561 1605l241 321h271l-321 -321h-191z" />
<glyph unicode="&#xc2;" horiz-adv-x="1508" d="M23 0l576 1480h308l576 -1480h-316l-154 395h-612l-154 -395h-224zM376 1605l241 321h273l241 -321h-179l-198 197h-2l-197 -197h-179zM477 592h460l-230 590z" />
<glyph unicode="&#xc3;" horiz-adv-x="1508" d="M23 0l576 1480h308l576 -1480h-316l-154 395h-612l-154 -395h-224zM400 1605q0 321 201 321q65 0 127 -43l38 -26l31 -22q64 -45 91 -45q67 0 67 136h148q0 -321 -201 -321q-65 0 -126 43l-39 26q-24 17 -31 22q-61 45 -91 45q-67 0 -67 -136h-148zM477 592h460l-230 590 z" />
<glyph unicode="&#xc4;" horiz-adv-x="1508" d="M23 0l576 1480h308l576 -1480h-316l-154 395h-612l-154 -395h-224zM431 1605v222h222v-222h-222zM477 592h460l-230 590zM850 1605v222h222v-222h-222z" />
<glyph unicode="&#xc5;" horiz-adv-x="1508" d="M23 0l576 1480h308l576 -1480h-316l-154 395h-612l-154 -395h-224zM477 592h460l-230 590zM525 1709q0 94 66 160.5t161 66.5q94 0 160.5 -66t66.5 -161q0 -96 -66.5 -161.5t-163.5 -65.5q-93 0 -158.5 66.5t-65.5 160.5zM624 1709q0 -53 37 -90.5t89 -37.5q55 0 92.5 37 t37.5 92q0 53 -37.5 90t-90.5 37t-90.5 -37t-37.5 -91z" />
<glyph unicode="&#xc6;" horiz-adv-x="1961" d="M21 0l839 1480h982v-203h-623v-413h512v-204h-512v-450h669v-210h-972v382h-437l-218 -382h-240zM586 574h330v580z" />
<glyph unicode="&#xc7;" horiz-adv-x="1459" d="M93 740q0 374 204.5 575.5t583.5 201.5q242 0 481 -57v-241q-271 95 -454 95q-234 0 -361 -148.5t-127 -421.5q0 -268 136.5 -418t379.5 -150q218 0 440 110v-227q-215 -96 -513 -96q-364 0 -567 205t-203 572zM613 -311q70 -15 117 -15q122 0 122 60q0 84 -195 84h-20 l121 182h136l-76 -113q232 -25 232 -156q0 -69 -72 -116t-177 -47q-82 0 -188 29v92z" />
<glyph unicode="&#xc8;" horiz-adv-x="1230" d="M185 0v1480h925v-203h-617v-413h506v-204h-506v-450h664v-210h-972zM340 1926h271l241 -321h-191z" />
<glyph unicode="&#xc9;" horiz-adv-x="1230" d="M185 0v1480h925v-203h-617v-413h506v-204h-506v-450h664v-210h-972zM494 1605l241 321h271l-321 -321h-191z" />
<glyph unicode="&#xca;" horiz-adv-x="1230" d="M185 0v1480h925v-203h-617v-413h506v-204h-506v-450h664v-210h-972zM284 1605l241 321h273l241 -321h-179l-198 197h-2l-197 -197h-179z" />
<glyph unicode="&#xcb;" horiz-adv-x="1230" d="M185 0v1480h925v-203h-617v-413h506v-204h-506v-450h664v-210h-972zM345 1605v222h222v-222h-222zM764 1605v222h222v-222h-222z" />
<glyph unicode="&#xcc;" horiz-adv-x="678" d="M18 1926h271l241 -321h-191zM185 0v1480h308v-1480h-308z" />
<glyph unicode="&#xcd;" horiz-adv-x="678" d="M149 1605l241 321h271l-321 -321h-191zM185 0v1480h308v-1480h-308z" />
<glyph unicode="&#xce;" horiz-adv-x="678" d="M-36 1605l241 321h273l241 -321h-179l-198 197h-2l-197 -197h-179zM185 0v1480h308v-1480h-308z" />
<glyph unicode="&#xcf;" horiz-adv-x="678" d="M19 1605v222h222v-222h-222zM185 0v1480h308v-1480h-308zM438 1605v222h222v-222h-222z" />
<glyph unicode="&#xd0;" horiz-adv-x="1624" d="M0 645v197h185v638h637q344 0 527 -182.5t183 -526.5q0 -366 -194 -568.5t-543 -202.5h-610v645h-185zM493 210h230q268 0 375 151q107 150 107 392q0 212 -96 353q-66 97 -159 134t-271 37h-186v-435h210v-197h-210v-435z" />
<glyph unicode="&#xd1;" horiz-adv-x="1574" d="M185 0v1480h271l686 -1011v1011h247v-1480h-276l-681 1011v-1011h-247zM456 1605q0 321 201 321q65 0 127 -43l38 -26l31 -22q64 -45 91 -45q67 0 67 136h148q0 -321 -201 -321q-65 0 -126 43l-39 26q-24 17 -31 22q-61 45 -91 45q-67 0 -67 -136h-148z" />
<glyph unicode="&#xd2;" horiz-adv-x="1686" d="M93 740q0 357 203 567t548 210q343 0 546.5 -210t203.5 -564q0 -362 -203.5 -571t-556.5 -209q-337 0 -539 212t-202 565zM420 741q0 -259 115 -416.5t303 -157.5q198 0 313.5 155.5t115.5 421.5q0 258 -116 414t-307 156q-193 0 -308.5 -156t-115.5 -417zM523 1926h271 l241 -321h-191z" />
<glyph unicode="&#xd3;" horiz-adv-x="1686" d="M93 740q0 357 203 567t548 210q343 0 546.5 -210t203.5 -564q0 -362 -203.5 -571t-556.5 -209q-337 0 -539 212t-202 565zM420 741q0 -259 115 -416.5t303 -157.5q198 0 313.5 155.5t115.5 421.5q0 258 -116 414t-307 156q-193 0 -308.5 -156t-115.5 -417zM651 1605 l241 321h271l-321 -321h-191z" />
<glyph unicode="&#xd4;" horiz-adv-x="1686" d="M93 740q0 357 203 567t548 210q343 0 546.5 -210t203.5 -564q0 -362 -203.5 -571t-556.5 -209q-337 0 -539 212t-202 565zM420 741q0 -259 115 -416.5t303 -157.5q198 0 313.5 155.5t115.5 421.5q0 258 -116 414t-307 156q-193 0 -308.5 -156t-115.5 -417zM466 1605 l241 321h273l241 -321h-179l-198 197h-2l-197 -197h-179z" />
<glyph unicode="&#xd5;" horiz-adv-x="1686" d="M93 740q0 357 203 567t548 210q343 0 546.5 -210t203.5 -564q0 -362 -203.5 -571t-556.5 -209q-337 0 -539 212t-202 565zM420 741q0 -259 115 -416.5t303 -157.5q198 0 313.5 155.5t115.5 421.5q0 258 -116 414t-307 156q-193 0 -308.5 -156t-115.5 -417zM492 1605 q0 321 201 321q65 0 127 -43l38 -26l31 -22q64 -45 91 -45q67 0 67 136h148q0 -321 -201 -321q-65 0 -126 43l-39 26q-24 17 -31 22q-61 45 -91 45q-67 0 -67 -136h-148z" />
<glyph unicode="&#xd6;" horiz-adv-x="1686" d="M93 740q0 357 203 567t548 210q343 0 546.5 -210t203.5 -564q0 -362 -203.5 -571t-556.5 -209q-337 0 -539 212t-202 565zM420 741q0 -259 115 -416.5t303 -157.5q198 0 313.5 155.5t115.5 421.5q0 258 -116 414t-307 156q-193 0 -308.5 -156t-115.5 -417zM523 1605v222 h222v-222h-222zM942 1605v222h222v-222h-222z" />
<glyph unicode="&#xd7;" horiz-adv-x="1629" d="M222 122l470 470l-470 470l122 122l470 -470l470 470l122 -122l-470 -470l470 -470l-122 -122l-470 470l-470 -470z" />
<glyph unicode="&#xd8;" horiz-adv-x="1686" d="M91 -37l188 224q-188 216 -188 555q0 355 203 565t547 210q258 0 451 -126l107 126h193l-189 -224q189 -213 189 -555q0 -355 -203.5 -565t-546.5 -210q-256 0 -451 127l-107 -127h-193zM418 741q0 -165 60 -317l646 766q-108 124 -283 124q-192 0 -307.5 -156.5 t-115.5 -416.5zM559 290q109 -123 283 -123q192 0 307.5 156.5t115.5 418.5q0 165 -60 315z" />
<glyph unicode="&#xd9;" horiz-adv-x="1508" d="M173 574v906h308v-907q0 -215 71 -310.5t229 -95.5q151 0 218.5 91t67.5 293v929h268v-909q0 -205 -39 -312.5t-142 -186.5q-141 -109 -379 -109q-255 0 -410 116q-107 80 -149.5 189.5t-42.5 305.5zM461 1926h271l241 -321h-191z" />
<glyph unicode="&#xda;" horiz-adv-x="1508" d="M173 574v906h308v-907q0 -215 71 -310.5t229 -95.5q151 0 218.5 91t67.5 293v929h268v-909q0 -205 -39 -312.5t-142 -186.5q-141 -109 -379 -109q-255 0 -410 116q-107 80 -149.5 189.5t-42.5 305.5zM590 1605l241 321h271l-321 -321h-191z" />
<glyph unicode="&#xdb;" horiz-adv-x="1508" d="M173 574v906h308v-907q0 -215 71 -310.5t229 -95.5q151 0 218.5 91t67.5 293v929h268v-909q0 -205 -39 -312.5t-142 -186.5q-141 -109 -379 -109q-255 0 -410 116q-107 80 -149.5 189.5t-42.5 305.5zM397 1605l241 321h273l241 -321h-179l-198 197h-2l-197 -197h-179z " />
<glyph unicode="&#xdc;" horiz-adv-x="1508" d="M173 574v906h308v-907q0 -215 71 -310.5t229 -95.5q151 0 218.5 91t67.5 293v929h268v-909q0 -205 -39 -312.5t-142 -186.5q-141 -109 -379 -109q-255 0 -410 116q-107 80 -149.5 189.5t-42.5 305.5zM454 1605v222h222v-222h-222zM873 1605v222h222v-222h-222z" />
<glyph unicode="&#xdd;" horiz-adv-x="1406" d="M40 1480h340l361 -625l377 625h244l-517 -858v-622h-308v620zM549 1605l241 321h271l-321 -321h-191z" />
<glyph unicode="&#xde;" horiz-adv-x="1256" d="M185 0v1480h296v-283h214q270 0 385.5 -91t115.5 -301q0 -241 -155 -375t-432 -134h-128v-296h-296zM481 500h74q154 0 240.5 74t86.5 206q0 213 -280 213h-121v-493z" />
<glyph unicode="&#xdf;" horiz-adv-x="1354" d="M185 0v1131q0 473 447 473q194 0 307.5 -70.5t113.5 -190.5q0 -97 -65 -188l-61 -86q-70 -98 -70 -141q0 -63 105 -150l137 -112q119 -98 166 -175.5t47 -176.5q0 -155 -103.5 -247t-277.5 -92q-141 0 -303 54v206q155 -75 267 -75q68 0 110 34.5t42 89.5q0 64 -122 165 l-148 123q-161 134 -161 256q0 74 38 144l47 81l49 87q43 74 43 144q0 138 -156 138t-156 -213v-1209h-296z" />
<glyph unicode="&#xe0;" horiz-adv-x="1204" d="M82 291q0 182 145.5 280.5t416.5 98.5h79v100q0 171 -195 171q-173 0 -350 -98v204q201 76 398 76q431 0 431 -343v-486q0 -129 79 -129q18 0 50 11v-173q-94 -28 -166 -28q-182 0 -234 143h-13q-148 -143 -317 -143q-144 0 -234 88t-90 228zM270 1604h271l241 -321h-191 zM366 320q0 -61 41.5 -102.5t102.5 -41.5q104 0 213 101v223h-70q-134 0 -210.5 -48t-76.5 -132z" />
<glyph unicode="&#xe1;" horiz-adv-x="1204" d="M82 291q0 182 145.5 280.5t416.5 98.5h79v100q0 171 -195 171q-173 0 -350 -98v204q201 76 398 76q431 0 431 -343v-486q0 -129 79 -129q18 0 50 11v-173q-94 -28 -166 -28q-182 0 -234 143h-13q-148 -143 -317 -143q-144 0 -234 88t-90 228zM366 320q0 -61 41.5 -102.5 t102.5 -41.5q104 0 213 101v223h-70q-134 0 -210.5 -48t-76.5 -132zM398 1283l241 321h271l-321 -321h-191z" />
<glyph unicode="&#xe2;" horiz-adv-x="1204" d="M82 291q0 182 145.5 280.5t416.5 98.5h79v100q0 171 -195 171q-173 0 -350 -98v204q201 76 398 76q431 0 431 -343v-486q0 -129 79 -129q18 0 50 11v-173q-94 -28 -166 -28q-182 0 -234 143h-13q-148 -143 -317 -143q-144 0 -234 88t-90 228zM218 1283l241 321h273 l241 -321h-179l-198 197h-2l-197 -197h-179zM366 320q0 -61 41.5 -102.5t102.5 -41.5q104 0 213 101v223h-70q-134 0 -210.5 -48t-76.5 -132z" />
<glyph unicode="&#xe3;" horiz-adv-x="1204" d="M82 291q0 182 145.5 280.5t416.5 98.5h79v100q0 171 -195 171q-173 0 -350 -98v204q201 76 398 76q431 0 431 -343v-486q0 -129 79 -129q18 0 50 11v-173q-94 -28 -166 -28q-182 0 -234 143h-13q-148 -143 -317 -143q-144 0 -234 88t-90 228zM217 1283q0 321 201 321 q65 0 127 -43l38 -26l31 -22q64 -45 91 -45q67 0 67 136h148q0 -321 -201 -321q-65 0 -126 43l-39 26q-24 17 -31 22q-61 45 -91 45q-67 0 -67 -136h-148zM366 320q0 -61 41.5 -102.5t102.5 -41.5q104 0 213 101v223h-70q-134 0 -210.5 -48t-76.5 -132z" />
<glyph unicode="&#xe4;" horiz-adv-x="1204" d="M82 291q0 182 145.5 280.5t416.5 98.5h79v100q0 171 -195 171q-173 0 -350 -98v204q201 76 398 76q431 0 431 -343v-486q0 -129 79 -129q18 0 50 11v-173q-94 -28 -166 -28q-182 0 -234 143h-13q-148 -143 -317 -143q-144 0 -234 88t-90 228zM268 1283v222h222v-222h-222 zM366 320q0 -61 41.5 -102.5t102.5 -41.5q104 0 213 101v223h-70q-134 0 -210.5 -48t-76.5 -132zM687 1283v222h222v-222h-222z" />
<glyph unicode="&#xe5;" horiz-adv-x="1204" d="M82 291q0 182 145.5 280.5t416.5 98.5h79v100q0 171 -195 171q-173 0 -350 -98v204q201 76 398 76q431 0 431 -343v-486q0 -129 79 -129q18 0 50 11v-173q-94 -28 -166 -28q-182 0 -234 143h-13q-148 -143 -317 -143q-144 0 -234 88t-90 228zM362 1510q0 94 66 160.5 t161 66.5q94 0 160.5 -66t66.5 -161q0 -96 -66.5 -161.5t-163.5 -65.5q-93 0 -158.5 66.5t-65.5 160.5zM366 320q0 -61 41.5 -102.5t102.5 -41.5q104 0 213 101v223h-70q-134 0 -210.5 -48t-76.5 -132zM461 1510q0 -53 37 -90.5t89 -37.5q55 0 92.5 37t37.5 92 q0 53 -37.5 90t-90.5 37t-90.5 -37t-37.5 -91z" />
<glyph unicode="&#xe6;" horiz-adv-x="1808" d="M82 291q0 181 145.5 278t416.5 97h79v104q0 171 -195 171q-173 0 -350 -98v204q201 76 392 76q173 0 333 -121q151 121 331 121q233 0 343.5 -154t110.5 -479h-681q31 -314 346 -314q148 0 335 69v-208q-210 -62 -419 -62q-165 0 -270.5 49t-197.5 168 q-153 -217 -389 -217q-148 0 -239 87t-91 229zM366 320q0 -61 41.5 -102.5t102.5 -41.5q103 0 213 101v223h-70q-132 0 -209.5 -48.5t-77.5 -131.5zM1004 657h393q0 284 -180 284q-185 0 -213 -284z" />
<glyph unicode="&#xe7;" horiz-adv-x="1090" d="M86 550q0 269 157 421t434 152q134 0 309 -43v-214q-182 59 -291 59q-133 0 -214 -102t-81 -271q0 -173 87.5 -277t233.5 -104q133 0 274 58v-205q-184 -49 -341 -49q-263 0 -415.5 154.5t-152.5 420.5zM407 -311q70 -15 117 -15q122 0 122 60q0 84 -195 84h-20l121 182 h136l-76 -113q232 -25 232 -156q0 -69 -72 -116t-177 -47q-82 0 -188 29v92z" />
<glyph unicode="&#xe8;" horiz-adv-x="1200" d="M86 557q0 255 145.5 410.5t384.5 155.5q241 0 352 -152t111 -481h-681q30 -314 345 -314q149 0 336 69v-208q-211 -62 -400 -62q-275 0 -434 156t-159 426zM290 1604h271l241 -321h-191zM394 657h394q0 281 -181 281q-184 0 -213 -281z" />
<glyph unicode="&#xe9;" horiz-adv-x="1200" d="M86 557q0 255 145.5 410.5t384.5 155.5q241 0 352 -152t111 -481h-681q30 -314 345 -314q149 0 336 69v-208q-211 -62 -400 -62q-275 0 -434 156t-159 426zM394 657h394q0 281 -181 281q-184 0 -213 -281zM421 1283l241 321h271l-321 -321h-191z" />
<glyph unicode="&#xea;" horiz-adv-x="1200" d="M86 557q0 255 145.5 410.5t384.5 155.5q241 0 352 -152t111 -481h-681q30 -314 345 -314q149 0 336 69v-208q-211 -62 -400 -62q-275 0 -434 156t-159 426zM234 1283l241 321h273l241 -321h-179l-198 197h-2l-197 -197h-179zM394 657h394q0 281 -181 281 q-184 0 -213 -281z" />
<glyph unicode="&#xeb;" horiz-adv-x="1200" d="M86 557q0 255 145.5 410.5t384.5 155.5q241 0 352 -152t111 -481h-681q30 -314 345 -314q149 0 336 69v-208q-211 -62 -400 -62q-275 0 -434 156t-159 426zM291 1283v222h222v-222h-222zM394 657h394q0 281 -181 281q-184 0 -213 -281zM710 1283v222h222v-222h-222z" />
<glyph unicode="&#xec;" horiz-adv-x="666" d="M14 1604h271l241 -321h-191zM185 0v1098h296v-1098h-296z" />
<glyph unicode="&#xed;" horiz-adv-x="666" d="M142 1283l241 321h271l-321 -321h-191zM185 0v1098h296v-1098h-296z" />
<glyph unicode="&#xee;" horiz-adv-x="666" d="M-42 1283l241 321h273l241 -321h-179l-198 197h-2l-197 -197h-179zM185 0v1098h296v-1098h-296z" />
<glyph unicode="&#xef;" horiz-adv-x="666" d="M12 1283v222h222v-222h-222zM185 0v1098h296v-1098h-296zM431 1283v222h222v-222h-222z" />
<glyph unicode="&#xf0;" horiz-adv-x="1310" d="M93 1394v185q248 0 464 -75l220 188l111 -133l-161 -138q226 -124 356 -345.5t130 -482.5q0 -277 -155.5 -447.5t-406.5 -170.5q-249 0 -402 152.5t-153 398.5q0 237 147.5 392t373.5 155q59 0 140 -18q-67 128 -210 214l-250 -203l-109 130l190 158q-135 39 -252 39z M409 523q0 -165 67.5 -264t181.5 -99q119 0 188.5 104.5t69.5 281.5q0 343 -252 343q-117 0 -186 -99t-69 -267z" />
<glyph unicode="&#xf1;" horiz-adv-x="1345" d="M185 0v1098h296v-207q145 232 374 232q147 0 232 -93t85 -254v-776h-296v703q0 187 -124 187q-141 0 -271 -199v-691h-296zM320 1283q0 321 201 321q65 0 127 -43l38 -26l31 -22q64 -45 91 -45q67 0 67 136h148q0 -321 -201 -321q-65 0 -126 43l-39 26q-24 17 -31 22 q-61 45 -91 45q-67 0 -67 -136h-148z" />
<glyph unicode="&#xf2;" d="M86 549q0 266 152.5 420t414.5 154q263 0 415.5 -154t152.5 -418q0 -270 -153 -423t-422 -153q-257 0 -408.5 155.5t-151.5 418.5zM333 1604h271l241 -321h-191zM401 549q0 -179 67 -284t183 -105q120 0 187.5 103.5t67.5 287.5q0 179 -67.5 283t-185.5 104 q-117 0 -184.5 -104t-67.5 -285z" />
<glyph unicode="&#xf3;" d="M86 549q0 266 152.5 420t414.5 154q263 0 415.5 -154t152.5 -418q0 -270 -153 -423t-422 -153q-257 0 -408.5 155.5t-151.5 418.5zM401 549q0 -179 67 -284t183 -105q120 0 187.5 103.5t67.5 287.5q0 179 -67.5 283t-185.5 104q-117 0 -184.5 -104t-67.5 -285zM463 1283 l241 321h271l-321 -321h-191z" />
<glyph unicode="&#xf4;" d="M86 549q0 266 152.5 420t414.5 154q263 0 415.5 -154t152.5 -418q0 -270 -153 -423t-422 -153q-257 0 -408.5 155.5t-151.5 418.5zM276 1283l241 321h273l241 -321h-179l-198 197h-2l-197 -197h-179zM401 549q0 -179 67 -284t183 -105q120 0 187.5 103.5t67.5 287.5 q0 179 -67.5 283t-185.5 104q-117 0 -184.5 -104t-67.5 -285z" />
<glyph unicode="&#xf5;" d="M86 549q0 266 152.5 420t414.5 154q263 0 415.5 -154t152.5 -418q0 -270 -153 -423t-422 -153q-257 0 -408.5 155.5t-151.5 418.5zM302 1283q0 321 201 321q65 0 127 -43l38 -26l31 -22q64 -45 91 -45q67 0 67 136h148q0 -321 -201 -321q-65 0 -126 43l-39 26 q-24 17 -31 22q-61 45 -91 45q-67 0 -67 -136h-148zM401 549q0 -179 67 -284t183 -105q120 0 187.5 103.5t67.5 287.5q0 179 -67.5 283t-185.5 104q-117 0 -184.5 -104t-67.5 -285z" />
<glyph unicode="&#xf6;" d="M86 549q0 266 152.5 420t414.5 154q263 0 415.5 -154t152.5 -418q0 -270 -153 -423t-422 -153q-257 0 -408.5 155.5t-151.5 418.5zM333 1283v222h222v-222h-222zM401 549q0 -179 67 -284t183 -105q120 0 187.5 103.5t67.5 287.5q0 179 -67.5 283t-185.5 104 q-117 0 -184.5 -104t-67.5 -285zM752 1283v222h222v-222h-222z" />
<glyph unicode="&#xf7;" horiz-adv-x="1629" d="M222 506v173h1184v-173h-1184zM691 0v247h247v-247h-247zM691 938v246h247v-246h-247z" />
<glyph unicode="&#xf8;" d="M88 -25l139 167q-139 164 -139 408q0 265 152.5 419t414.5 154q182 0 324 -80l67 80h177l-139 -167q139 -162 139 -408q0 -265 -152.5 -419t-413.5 -154q-186 0 -325 81l-67 -81h-177zM403 550q0 -87 21 -173l400 480q-64 81 -169 81q-117 0 -184.5 -104t-67.5 -284z M486 240q66 -80 170 -80q117 0 184.5 104t67.5 284q0 86 -21 173z" />
<glyph unicode="&#xf9;" horiz-adv-x="1345" d="M173 322v776h296v-703q0 -187 125 -187q140 0 270 199v691h296v-1098h-296v207q-144 -232 -374 -232q-147 0 -232 93t-85 254zM348 1604h271l241 -321h-191z" />
<glyph unicode="&#xfa;" horiz-adv-x="1345" d="M173 322v776h296v-703q0 -187 125 -187q140 0 270 199v691h296v-1098h-296v207q-144 -232 -374 -232q-147 0 -232 93t-85 254zM475 1283l241 321h271l-321 -321h-191z" />
<glyph unicode="&#xfb;" horiz-adv-x="1345" d="M173 322v776h296v-703q0 -187 125 -187q140 0 270 199v691h296v-1098h-296v207q-144 -232 -374 -232q-147 0 -232 93t-85 254zM288 1283l241 321h273l241 -321h-179l-198 197h-2l-197 -197h-179z" />
<glyph unicode="&#xfc;" horiz-adv-x="1345" d="M173 322v776h296v-703q0 -187 125 -187q140 0 270 199v691h296v-1098h-296v207q-144 -232 -374 -232q-147 0 -232 93t-85 254zM345 1283v222h222v-222h-222zM764 1283v222h222v-222h-222z" />
<glyph unicode="&#xfd;" horiz-adv-x="1194" d="M31 1098h318l272 -734l323 734h225l-678 -1493h-302l249 395zM431 1283l241 321h271l-321 -321h-191z" />
<glyph unicode="&#xfe;" horiz-adv-x="1357" d="M185 -395v1974h296v-688q114 232 359 232q198 0 311.5 -145t113.5 -399q0 -276 -128 -440t-343 -164q-173 0 -313 136v-506h-296zM481 287q108 -120 230 -120q109 0 174 105.5t65 281.5q0 337 -217 337q-131 0 -252 -169v-435z" />
<glyph unicode="&#xff;" horiz-adv-x="1194" d="M31 1098h318l272 -734l323 734h225l-678 -1493h-302l249 395zM301 1283v222h222v-222h-222zM720 1283v222h222v-222h-222z" />
<glyph unicode="&#x2000;" horiz-adv-x="968" />
<glyph unicode="&#x2001;" horiz-adv-x="1936" />
<glyph unicode="&#x2002;" horiz-adv-x="968" />
<glyph unicode="&#x2003;" horiz-adv-x="1936" />
<glyph unicode="&#x2004;" horiz-adv-x="645" />
<glyph unicode="&#x2005;" horiz-adv-x="484" />
<glyph unicode="&#x2006;" horiz-adv-x="322" />
<glyph unicode="&#x2007;" horiz-adv-x="322" />
<glyph unicode="&#x2008;" horiz-adv-x="242" />
<glyph unicode="&#x2009;" horiz-adv-x="387" />
<glyph unicode="&#x200a;" horiz-adv-x="107" />
<glyph unicode="&#x2010;" horiz-adv-x="1185" d="M148 543v197h888v-197h-888z" />
<glyph unicode="&#x2011;" horiz-adv-x="1185" d="M148 543v197h888v-197h-888z" />
<glyph unicode="&#x2012;" horiz-adv-x="1185" d="M148 543v197h888v-197h-888z" />
<glyph unicode="&#x202f;" horiz-adv-x="387" />
<glyph unicode="&#x205f;" horiz-adv-x="484" />
<glyph unicode="&#xe000;" horiz-adv-x="1100" d="M0 0v1100h1100v-1100h-1100z" />
</font>
</defs>
</svg>
